osu file format v6

[General]
AudioFilename: Hard to Start.mp3
AudioLeadIn: 1250
PreviewTime: 21123
Countdown: 1
SampleSet: Soft
StackLeniency: 0.7
Mode: 0
LetterboxInBreaks: 1

[Editor]
DistanceSpacing: 0.800000011920929
BeatDivisor: 4
GridSize: 8

[Metadata]
Title:Hard to Start
Artist:015B
Creator:MoonFragrance
Version:Normal
Source:015B's 7th Album Lucky 7
Tags:DJMAX Clazziquai Edition Yozoh Giggsan SAREE Z_B

[Difficulty]
HPDrainRate:2
CircleSize:4
OverallDifficulty:4
SliderMultiplier:1.4
SliderTickRate:1

[Events]
//Background and Video events
0,0,"kong.jpg"
Video,-1500,"video.flv"
//Break Periods
2,55587,57495
2,99729,100352
//Storyboard Layer 0 (Background)
//Storyboard Layer 1 (Fail)
//Storyboard Layer 2 (Pass)
//Storyboard Layer 3 (Foreground)
//Storyboard Sound Samples
//Background Colour Transformations
3,100,0,170,0

[TimingPoints]
530,428.571428571429,4,2,1,70,1,0
7172,-100,4,1,1,50,0,0
14030,-100,4,2,1,80,0,0
20887,-100,4,1,1,50,0,0
34601,-100,4,2,1,80,0,0
47030,-100,4,1,1,50,0,0
55387,-100,4,2,1,80,0,0
92887,-100,4,1,1,50,0,0
101244,-100,4,2,1,80,0,0
104887,-100,4,2,1,50,0,0

[Colours]
Combo1 : 255,239,191
Combo2 : 191,255,128
Combo3 : 128,255,128
Combo4 : 250,133,133

[HitObjects]
80,96,530,1,2
160,176,958,1,0
240,96,1387,1,0
432,208,2244,2,0,B|432:304|336:304,1,140
280,216,3101,1,2
240,256,3315,1,0
200,296,3530,1,0
88,296,3958,5,2
48,192,4387,1,2
88,88,4815,2,0,B|232:88,1,140,0|2
344,88,5672,1,0
376,192,6101,1,2
344,296,6529,2,0,B|448:296,2,70,2|0|2
240,256,7387,5,0
136,296,7815,1,8
80,136,8458,1,0
80,136,8672,1,8
168,64,9101,1,0
256,136,9529,1,8
384,248,10172,1,0
384,248,10387,1,8
288,304,10815,5,0
192,248,11244,1,8
64,136,11887,1,0
64,136,12101,1,8
144,56,12529,1,0
224,136,12958,1,8
376,56,13601,1,0
376,56,13815,1,8
376,168,14244,5,2
376,280,14672,1,2
320,280,14887,1,0
264,280,15101,1,0
152,280,15529,1,2
80,200,15958,1,0
152,112,16387,1,2
248,48,16815,1,0
336,112,17244,1,2
408,192,17672,5,2
376,240,17887,1,0
336,280,18101,1,2
256,200,18530,1,0
176,280,18958,1,2
104,192,19387,1,0
176,104,19815,1,2
272,48,20244,1,2
272,104,20458,1,0
272,160,20672,1,0
272,272,21101,5,0
384,272,21530,1,8
384,160,21958,2,0,B|456:160,2,70,0|0|8
304,80,22815,1,0
224,160,23244,2,0,B|224:72|88:72|88:160,1,210,8|0
88,157,24101,1,8
32,256,24530,5,0
144,256,24958,1,8
256,256,25387,2,0,B|256:352,2,70,0|0|8
368,256,26244,1,0
440,176,26672,2,0,B|502:113|406:17|343:79,1,210,8|0
345,78,27530,1,8
256,152,27958,5,0
168,80,28387,1,8
88,152,28815,1,0
88,152,29030,2,0,B|88:240,1,70,0|8
168,296,29672,1,0
280,296,30101,2,0,B|342:358|438:262|376:199,1,210,8|0
377,201,30958,1,8
376,88,31387,5,0
272,40,31815,1,8
176,88,32244,1,0
176,88,32458,2,0,B|96:88,1,70,0|8
72,192,33101,2,0,B|72:280|160:280,1,140,0|8
157,279,33744,1,0
272,280,34172,1,0
272,280,34387,1,8
368,216,34815,5,2
408,176,35030,1,0
408,120,35244,1,10
312,72,35672,2,0,B|168:72,1,140,2|2
88,144,36530,1,0
88,256,36958,1,10
200,256,37387,2,0,B|200:328,2,70,2|0|10
312,256,38244,5,2
368,248,38458,1,2
424,240,38672,1,8
400,128,39101,2,0,B|312:104|256:176,1,140,2|8
168,120,39958,1,0
96,208,40387,1,10
168,296,40815,1,2
224,296,41030,1,0
280,296,41244,1,8
392,288,41672,6,2,B|480:288|480:152|392:152,1,210,2|2
344,120,42530,1,2
296,152,42744,1,0
248,120,42958,1,10
136,120,43387,1,2
56,192,43815,1,8
136,272,44244,1,2
184,248,44458,1,0
232,224,44672,1,8
336,272,45101,6,2,B|456:272|448:88|336:88,1,280,2|0
256,160,46387,1,10
160,96,46815,1,2
64,152,47244,1,0
80,208,47458,1,0
128,240,47672,1,0
352,232,48530,6,0,B|352:80,1,140
320,48,49172,2,0,B|200:48|200:192,1,210
208,296,50244,6,0,B|360:296,1,140
384,248,50887,2,0,B|384:128|240:128,1,210
256,208,51958,12,0,55387
112,96,58815,5,2
224,96,59244,1,0
392,96,59887,1,0
392,264,60529,1,0
280,264,60958,1,0
112,264,61601,1,0
112,96,62244,5,0
224,96,62672,1,0
392,96,63315,2,2,B|392:232|256:232,1,210,0|0
96,224,64601,1,0
96,224,65029,1,0
96,56,65672,5,2
152,56,65887,1,0
208,56,66101,1,0
376,56,66744,2,0,B|376:96,1,35
376,232,67387,2,2,B|232:232,1,140,2|0
64,232,68458,1,0
152,88,69101,5,0
264,88,69529,1,0
432,88,70172,2,2,B|432:224|296:224,1,210,0|2
136,224,71458,1,0
136,224,71887,1,0
304,248,72529,5,0
416,248,72958,1,0
416,80,73601,1,0
248,80,74244,1,0
136,80,74672,1,0
136,248,75315,1,0
304,248,75958,5,0
416,248,76387,1,0
416,80,77029,2,2,B|184:80,1,210,0|0
80,192,78315,1,0
216,296,78958,1,0
328,296,79387,5,0
328,296,79601,1,0
328,296,79815,1,0
448,184,80458,2,0,B|448:136,1,35
328,80,81101,2,2,B|184:80,1,140,0|0
80,208,82172,1,2
208,312,82815,6,2,B|296:312|296:216,1,140
296,56,83887,1,0
256,208,84529,12,0,86244
256,80,86672,5,0
256,192,87101,1,0
408,120,87744,2,2,B|408:272,1,140
408,260,88387,1,0
304,304,88815,1,2
200,256,89244,1,2
96,304,89672,6,2,B|96:160,2,140,2|2|0
256,248,91172,2,2,B|424:248,1,140,2|2
396,248,91815,1,0
376,136,92244,1,0
264,136,92672,1,0
168,72,93101,5,0
80,136,93529,2,0,B|80:256,2,105,8|0|0
80,136,94387,1,8
168,200,94815,1,0
256,264,95244,2,0,B|368:264,2,105,8|0|0
256,264,96101,1,8
320,192,96529,5,0
400,112,96958,2,0,B|480:32,2,105,8|0|0
400,112,97815,1,8
296,64,98244,1,0
192,104,98672,2,0,B|72:104,2,105,8|0|0
192,104,99529,1,8
144,80,101672,6,2,B|296:80,1,140
376,136,102529,1,2
376,192,102744,1,0
376,248,102958,1,2
280,304,103387,1,2
280,248,103601,1,0
280,192,103815,1,2
184,128,104244,1,2
184,184,104458,1,0
184,240,104672,1,2
280,304,105101,6,2,B|464:304|464:48|272:48,1,420
192,112,106815,1,2
120,200,107244,1,2
192,288,107672,1,2
