osu file format v6

[General]
AudioFilename: Hard to Start.mp3
AudioLeadIn: 1250
PreviewTime: 21123
Countdown: 1
SampleSet: Soft
StackLeniency: 0.7
Mode: 0
LetterboxInBreaks: 1

[Editor]
DistanceSpacing: 0.800000011920929
BeatDivisor: 4
GridSize: 8

[Metadata]
Title:Hard to Start
Artist:015B
Creator:MoonFragrance
Version:Easy
Source:015B's 7th Album Lucky 7
Tags:DJMAX Clazziquai Edition Yozoh Giggsan SAREE Z_B

[Difficulty]
HPDrainRate:2
CircleSize:3
OverallDifficulty:2
SliderMultiplier:1
SliderTickRate:1

[Events]
//Background and Video events
0,0,"kong.jpg"
Video,-1500,"video.flv"
//Break Periods
2,55587,57255
2,99729,100112
//Storyboard Layer 0 (Background)
//Storyboard Layer 1 (Fail)
//Storyboard Layer 2 (Pass)
//Storyboard Layer 3 (Foreground)
//Storyboard Sound Samples
//Background Colour Transformations
3,100,0,170,0

[TimingPoints]
530,428.571428571429,4,2,1,70,1,0
7387,-100,4,2,1,50,0,0
14030,-100,4,2,1,80,0,0
20887,-100,4,1,1,50,0,0
34601,-100,4,2,1,80,0,0
47030,-100,4,1,1,50,0,0
55387,-100,4,2,1,80,0,0

[Colours]
Combo1 : 255,239,191
Combo2 : 191,255,128
Combo3 : 128,255,128
Combo4 : 250,133,133

[HitObjects]
80,96,530,1,2
240,96,1387,1,0
400,96,2244,1,2
400,256,3101,1,0
240,256,3958,5,2
80,256,4815,1,0
160,120,5672,1,2
320,120,6529,2,0,B|440:120,2,100,2|2|0
240,120,7815,5,10
80,120,8672,1,8
80,200,9101,2,0,B|80:304,1,100,0|8
240,304,10387,1,10
320,304,10815,6,0,B|432:304,1,100,0|8
424,144,12101,1,10
424,64,12529,2,0,B|304:64,1,100,0|8
168,64,13815,1,10
88,64,14244,5,2
88,224,15101,1,0
232,296,15958,1,0
312,296,16387,1,0
392,296,16815,1,2
392,136,17672,5,2
256,48,18530,1,0
96,72,19387,1,0
96,152,19815,1,2
96,232,20244,2,0,B|176:312,1,100,2|0
248,304,21101,5,0
328,304,21530,1,8
432,192,22387,1,8
392,120,22815,1,0
320,80,23244,1,8
160,80,24101,1,8
96,128,24530,5,0
56,200,24958,1,8
184,296,25815,1,8
264,296,26244,1,0
344,296,26672,1,8
464,192,27530,1,8
416,128,27958,6,0,B|416:64|336:64,1,100,0|8
232,64,29030,2,0,B|168:88,1,50,0|8
112,112,29672,2,0,B|48:112|48:192,1,100,0|8
112,280,30744,1,0
112,280,30958,1,8
192,280,31387,6,0,B|312:280,1,100,0|8
408,280,32458,2,0,B|408:216,1,50,0|8
408,152,33101,2,0,B|408:96|336:96,1,100,0|8
256,184,34172,1,0
256,184,34387,1,8
256,104,34815,5,2
192,56,35244,1,10
128,104,35672,1,0
128,264,36530,1,0
200,304,36958,1,10
272,264,37387,1,0
392,160,38244,6,0,B|416:104|384:48,2,100,0|8|0
320,200,39530,1,8
256,240,39958,2,0,B|232:296|264:352,2,100,0|8|0
192,192,41244,1,8
136,136,41672,6,2,B|136:64|280:64|280:144,1,200,2|0
336,192,42958,1,8
408,152,43387,2,0,B|408:40,2,100,2|8|2
408,232,44672,1,8
344,280,45101,6,2,B|232:280|328:160|200:160,2,200,2|2|2
408,232,47244,1,8
424,312,47672,1,0
264,304,48530,6,0,B|264:136,2,150
344,304,50244,2,0,B|344:136,2,150,0|0|0
256,208,51958,12,0,55387
112,96,58815,5,2
192,96,59244,1,0
392,232,60529,1,0
312,232,60958,1,0
72,232,62244,5,0
152,232,62672,1,0
272,232,63315,2,0,B|368:232|368:136,1,150,0|0
272,64,64601,1,0
72,88,65672,5,2
72,168,66101,1,0
72,288,66744,1,0
192,288,67387,2,2,B|304:288,1,100,2|0
416,288,68458,1,0
416,168,69101,5,0
376,96,69529,1,0
256,72,70172,2,2,B|256:232,1,150,0|2
152,160,71458,1,0
152,240,71887,1,0
272,240,72529,5,0
352,240,72958,1,0
448,168,73601,1,0
360,88,74244,1,0
280,88,74672,1,0
160,120,75315,1,0
96,224,75958,5,0
152,288,76387,1,0
272,288,77029,2,2,B|448:288,1,150,0|0
424,168,78315,1,0
336,80,78958,1,0
256,80,79387,6,0,B|192:80,2,50
256,200,80458,1,0
208,312,81101,2,2,B|328:312,1,100,2|0
424,312,82172,1,0
424,192,82815,5,2
344,192,83244,1,0
224,192,83887,1,0
256,208,84529,12,0,86244
136,96,86672,5,8
256,96,87315,2,0,B|328:96,1,50,0|8
376,128,87958,2,0,B|376:232,1,100,0|8
272,288,89029,2,0,B|208:288,1,50,0|8
144,288,89672,6,0,B|144:168,1,100,0|8
144,64,90744,2,0,B|208:64,1,50,0|8
272,64,91387,2,2,B|392:64|392:200,2,200,2|2|0
192,88,93529,5,8
136,152,93958,1,0
136,272,94601,2,0,B|400:272,1,250
432,208,96101,1,8
432,128,96529,5,0
368,80,96958,1,8
288,56,97387,1,0
168,80,98029,2,0,B|24:80|24:256,1,250,0|8
88,296,99529,1,8
184,120,101672,6,2,B|184:40|312:40|320:128,1,200
376,176,102958,1,0
320,232,103387,1,2
256,272,103815,1,0
184,232,104244,1,2
120,272,104672,1,2
256,208,105101,12,2,106815
256,208,107672,5,2
