osu file format v12

[General]
AudioFilename: Prime Limitation.mp3
AudioLeadIn: 2000
PreviewTime: 80472
Countdown: 0
SampleSet: Normal
StackLeniency: 1
Mode: 0
LetterboxInBreaks: 0

[Editor]
DistanceSpacing: 1.5
BeatDivisor: 4
GridSize: 4

[Metadata]
Title:Prime Limitation (Short Ver.)
TitleUnicode:Prime Limitation (Short Ver.)
Artist:-yuki-
ArtistUnicode:侑樹-yuki-
Creator:Eggache0
Version:Insane
Source:Sakura Sakimashita
Tags:opening sorahane TINKERBELL Sakura Sakimashita
BeatmapID:257950
BeatmapSetID:59767

[Difficulty]
HPDrainRate:6
CircleSize:4
OverallDifficulty:7
ApproachRate:9
SliderMultiplier:2.3
SliderTickRate:2

[Events]
//Background and Video events
Video,0,"OP.avi"
0,0,"bg.jpg",0,0
//Break Periods
//Storyboard Layer 0 (Background)
//Storyboard Layer 1 (Fail)
//Storyboard Layer 2 (Pass)
//Storyboard Layer 3 (Foreground)
Sprite,Foreground,Centre,"white2.jpg",320,240 M,0,126421,,320,240 F,0,126421,,0
//Storyboard Sound Samples
//Background Colour Transformations
3,100,163,162,255

[TimingPoints]
2,352.941176470588,4,1,0,100,1,0
1413,-100,4,2,1,100,0,1
1501,-100,4,2,1,70,0,1
6354,-100,4,2,1,80,0,1
6707,-100,4,2,1,90,0,1
7060,-100,4,2,1,100,0,1
7149,-100,4,2,1,70,0,1
11296,-100,4,2,1,100,0,1
12707,-100,4,2,1,60,0,0
35473,-100,4,2,1,70,0,0
45178,-100,4,2,1,60,0,0
57707,-100,4,2,1,65,0,1
58237,-100,4,2,1,60,0,0
73944,-100,4,2,1,70,0,0
80472,-100,4,2,1,100,0,1
80560,-100,4,2,1,70,0,1
81707,-100,4,2,1,70,0,1
83119,-100,4,2,1,70,0,1
85413,-100,4,2,1,80,0,1
85766,-100,4,2,1,90,0,1
86119,-100,4,2,1,100,0,1
86207,-100,4,2,1,70,0,1
87354,-100,4,2,1,70,0,1
88766,-100,4,2,1,70,0,1
91060,-100,4,2,1,80,0,1
91413,-100,4,2,1,90,0,1
91766,-100,4,2,1,100,0,1
91854,-100,4,2,1,70,0,1
95825,-100,4,2,1,100,0,1
95913,-100,4,2,1,70,0,1
97413,-100,4,2,1,100,0,1
97501,-100,4,2,1,70,0,1
101649,-100,4,2,1,100,0,1
101737,-100,4,2,1,70,0,1
103060,-100,4,2,1,40,0,0
103590,-100,4,2,1,50,0,0
103766,-100,4,2,1,60,0,0
103943,-100,4,2,1,70,0,0
104119,-100,4,2,1,80,0,0
104472,-100,4,2,1,40,0,0
105178,-100,4,2,1,50,0,0
105354,-100,4,2,1,60,0,0
105531,-100,4,2,1,70,0,0
105707,-100,4,2,1,80,0,0
105884,-100,4,2,1,70,0,0
109766,-100,4,2,1,5,0,0
109767,-100,4,2,1,50,0,0

[Colours]
Combo1 : 18,18,194
Combo2 : 255,128,192
Combo3 : 255,0,128
Combo4 : 0,64,128
Combo5 : 255,128,128

[HitObjects]
142,66,884,5,0,0:0:0:0:
216,264,1060,1,0,0:0:0:0:
57,224,1237,1,0,0:0:0:0:
216,139,1413,6,0,P|288:128|344:140,1,115,4|0,0:0|0:0,0:0:0:0:
375,239,1766,1,8,0:0:0:0:
237,205,1943,1,0,0:0:0:0:
225,65,2119,1,8,0:0:0:0:
354,12,2296,1,0,0:0:0:0:
443,115,2472,1,8,0:0:0:0:
375,239,2649,22,0,P|277:284|158:278,1,230,4|0,0:0|0:0,0:0:0:0:
65,191,3178,1,8,0:0:0:0:
52,322,3355,1,0,0:0:0:0:
170,380,3531,1,8,0:0:0:0:
264,286,3708,1,0,0:0:0:0:
197,166,3884,1,8,0:0:0:0:
65,192,4060,22,0,P|149:264|264:288,1,230,4|0,0:0|0:0,0:0:0:0:
374,226,4590,1,8,0:0:0:0:
350,368,4766,1,0,0:0:0:0:
211,389,4943,1,8,0:0:0:0:
149,264,5119,1,0,0:0:0:0:
246,168,5296,1,0,0:0:0:0:
420,294,5472,6,0,P|466:186|447:76,1,230,12|0,0:0|0:0,0:0:0:0:
219,110,6001,1,4,0:0:0:0:
467,190,6178,1,0,0:0:0:0:
219,271,6354,1,8,0:0:0:0:
372,60,6531,1,4,0:0:0:0:
372,318,6707,1,4,0:0:0:0:
361,272,6796,1,0,0:0:0:0:
340,230,6884,2,0,P|316:197|301:184,1,57.5
219,110,7060,22,0,P|181:155|171:208,1,115,12|0,0:2|0:0,0:0:0:0:
308,67,7413,1,8,0:0:0:0:
123,89,7590,1,0,0:0:0:0:
285,180,7766,1,8,0:0:0:0:
207,11,7943,1,0,0:0:0:0:
171,194,8119,1,8,0:0:0:0:
354,251,8296,22,0,P|419:156|399:48,1,230,12|0,0:0|0:0,0:0:0:0:
290,170,8825,1,8,2:0:0:0:
442,280,9001,1,0,2:0:0:0:
255,280,9178,1,8,2:0:0:0:
405,171,9354,1,0,2:0:0:0:
348,348,9531,1,8,2:0:0:0:
158,133,9707,6,0,P|93:228|113:336,1,230,4|0,0:0|0:0,0:0:0:0:
240,193,10236,1,8,0:0:0:0:
63,136,10412,1,0,0:0:0:0:
240,78,10589,1,8,0:0:0:0:
130,229,10765,1,0,0:0:0:0:
130,42,10942,1,8,0:0:0:0:
304,52,11119,1,4,0:0:0:0:
369,212,11296,21,8,0:0:0:0:
235,305,11472,1,8,0:0:0:0:
142,171,11649,1,8,0:0:0:0:
276,78,11825,1,8,0:0:0:0:
347,307,12001,37,8,0:0:0:0:
309,327,12089,1,0,0:0:0:0:
269,342,12177,1,0,0:0:0:0:
227,352,12265,1,0,0:0:0:0:
184,357,12354,1,8,0:0:0:0:
141,358,12442,1,8,0:0:0:0:
98,353,12530,1,8,0:0:0:0:
56,343,12618,1,8,0:0:0:0:
16,329,12707,53,12,0:0:0:0:
35,214,12884,1,0,0:0:0:0:
112,136,13060,2,0,P|142:185|144:239,1,115,8|0,0:0|0:0,0:0:0:0:
144,241,13325,1,0,0:0:0:0:
144,241,13413,1,0,0:0:0:0:
35,214,13590,1,0,0:0:0:0:
4,110,13766,2,0,P|32:56|79:32,1,115,8|0,0:0|0:0,0:0:0:0:
177,92,14119,6,0,P|278:147|390:135,1,230,2|8,0:0|0:0,0:0:0:0:
487,74,14649,1,0,0:0:0:0:
483,281,14825,2,0,P|443:242|388:227,1,115
304,376,15178,2,0,P|357:360|398:320,1,115,8|0,0:0|0:0,0:0:0:0:
295,268,15531,22,0,P|181:263|86:202,1,230,4|8,0:0|0:0,0:0:0:0:
196,68,16060,1,0,0:0:0:0:
196,68,16149,1,0,0:0:0:0:
196,68,16237,2,0,P|233:108|246:168,1,115
85,201,16590,1,8,0:0:0:0:
159,152,16766,1,0,0:0:0:0:
196,68,16943,22,0,P|241:26|291:9,1,115,2|0,0:0|0:0,0:0:0:0:
294,124,17296,2,0,P|350:99|403:101,1,115,8|0,0:0|0:0,0:0:0:0:
370,210,17649,2,0,P|431:206|480:225,1,115,2|0,0:0|0:0,0:0:0:0:
412,322,18001,1,8,0:0:0:0:
466,337,18089,1,8,0:0:0:0:
510,374,18177,1,8,0:0:0:0:
280,352,18354,5,4,0:0:0:0:
184,208,18531,1,0,0:0:0:0:
188,324,18707,2,0,P|236:292|260:240,1,115,8|0,0:0|0:0,0:0:0:0:
259,241,18972,1,0,0:0:0:0:
259,241,19060,1,0,0:0:0:0:
204,140,19237,1,0,0:0:0:0:
188,28,19413,2,0,P|135:55|102:100,1,115,8|0,0:0|0:0,0:0:0:0:
44,264,19766,22,0,P|140:216|260:224,1,230,2|8,0:0|0:0,0:0:0:0:
376,208,20296,2,0,P|408:160|412:104,2,115
187,144,20825,2,0,P|238:120|296:124,1,115,8|0,0:0|0:0,0:0:0:0:
216,276,21178,22,0,P|115:325|0:317,1,230,4|8,0:0|0:0,0:0:0:0:
44,152,21707,1,0,0:0:0:0:
44,152,21796,1,0,0:0:0:0:
44,152,21884,2,0,P|76:200|80:256,1,115
60,368,22237,1,8,0:0:0:0:
168,328,22413,1,0,0:0:0:0:
284,340,22590,6,0,P|324:300|340:244,1,115,2|0,0:0|0:0,0:0:0:0:
370,93,22943,2,0,P|315:79|259:93,1,115,2|0,0:0|0:0,0:0:0:0:
113,142,23296,2,0,P|128:196|168:238,1,115,8|0,0:0|0:0,0:0:0:0:
284,340,23649,1,8,0:0:0:0:
324,299,23737,1,8,0:0:0:0:
339,245,23825,1,8,0:0:0:0:
370,93,24001,21,4,0:0:0:0:
292,176,24178,1,0,0:0:0:0:
404,200,24354,1,8,0:0:0:0:
370,93,24531,1,0,0:0:0:0:
370,93,24619,1,0,0:0:0:0:
370,93,24707,1,0,0:0:0:0:
292,176,24884,1,0,0:0:0:0:
184,220,25060,2,0,P|184:160|208:112,1,115,8|0,0:0|0:0,0:0:0:0:
304,256,25413,22,0,P|200:312|88:304,1,230,2|8,0:0|0:0,0:0:0:0:
120,192,25943,1,0,0:0:0:0:
72,88,26119,2,0,P|128:80|180:104,1,115
344,52,26472,2,0,P|288:60|236:36,1,115,8|0,0:0|0:0,0:0:0:0:
352,164,26825,6,0,P|412:264|400:372,1,230,4|8,0:0|0:0,0:0:0:0:
236,320,27354,1,0,0:0:0:0:
236,320,27443,1,0,0:0:0:0:
236,320,27531,2,0,P|280:280|336:272,1,115
328,384,27884,1,8,0:0:0:0:
236,320,28060,1,0,0:0:0:0:
8,360,28237,22,0,P|54:326|112:323,1,115,2|0,0:0|0:0,0:0:0:0:
27,159,28590,2,0,P|83:168|126:206,1,115,8|0,0:0|0:0,0:0:0:0:
183,32,28943,2,0,P|216:78|219:136,1,115,2|0,0:0|0:0,0:0:0:0:
384,52,29296,1,8,0:0:0:0:
374,107,29384,1,8,0:0:0:0:
337,150,29472,1,8,0:0:0:0:
260,236,29649,21,4,0:0:0:0:
340,320,29825,1,0,0:0:0:0:
456,328,30001,2,0,P|448:272|416:224,1,115,8|0,0:0|0:0,0:0:0:0:
416,224,30266,1,0,0:0:0:0:
416,224,30354,1,0,0:0:0:0:
340,320,30531,1,0,0:0:0:0:
244,384,30707,2,0,P|224:328|232:272,1,115,8|0,0:0|0:0,0:0:0:0:
276,172,31060,6,0,P|252:60|160:0,1,230,2|8,0:0|0:0,0:0:0:0:
184,112,31590,1,0,0:0:0:0:
336,36,31766,2,0,P|392:20|448:36,1,115
392,136,32119,2,0,P|442:164|471:215,1,115,8|0,0:0|0:0,0:0:0:0:
360,252,32472,22,0,P|244:252|156:320,1,230,4|8,0:0|0:0,0:0:0:0:
32,200,33001,1,0,0:0:0:0:
32,200,33090,1,0,0:0:0:0:
32,200,33178,2,0,P|90:200|134:166,1,115,0|0,0:0|0:0,0:0:0:0:
280,72,33531,2,0,P|222:72|177:106,1,115,8|0,0:0|0:0,0:0:0:0:
219,302,33884,21,2,0:0:0:0:
369,168,34060,1,0,0:0:0:0:
178,105,34237,1,8,0:0:0:0:
178,105,34413,2,0,L|156:52,2,57.5,8|8|8,0:0|0:0|0:0,0:0:0:0:
267,307,34766,1,8,0:0:0:0:
314,91,34943,1,8,0:0:0:0:
149,239,35119,1,8,0:0:0:0:
368,216,35296,5,12,0:0:0:0:
368,216,35649,2,0,L|479:184,1,115,0|0,0:0|0:0,0:0:0:0:
304,272,36001,2,0,L|272:383,1,115
130,200,36354,1,2,0:0:0:0:
96,308,36531,1,0,0:0:0:0:
208,292,36707,22,0,L|224:176,1,115,8|0,0:0|0:0,0:0:0:0:
145,52,37060,1,2,0:0:0:0:
109,159,37237,1,0,0:0:0:0:
33,67,37413,2,0,L|17:183,1,115,8|0,0:0|0:0,0:0:0:0:
66,346,37766,2,0,L|82:230,1,115,8|0,0:0|0:0,0:0:0:0:
185,181,38119,22,0,P|259:93|368:64,2,230,12|2|8,0:0|0:0|0:0,0:0:0:0:
283,241,39001,1,0,0:0:0:0:
283,241,39090,1,0,0:0:0:0:
283,241,39178,2,0,L|386:301,1,115,8|0,0:0|0:0,0:0:0:0:
411,187,39531,5,8,0:0:0:0:
366,82,39707,1,8,0:0:0:0:
270,22,39884,1,8,0:0:0:0:
157,26,40060,1,8,0:0:0:0:
66,93,40237,1,8,0:0:0:0:
66,93,40590,2,0,L|25:200,1,115,8|8,0:0|0:0,0:0:0:0:
130,154,40943,22,0,L|232:100,1,115,12|0,0:0|0:0,0:0:0:0:
382,230,41296,2,0,L|280:284,1,115,2|0,0:0|0:0,0:0:0:0:
294,66,41649,2,0,L|348:168,1,115,8|0,0:0|0:0,0:0:0:0:
218,318,42002,2,0,L|164:216,1,115,2|0,0:0|0:0,0:0:0:0:
211,27,42354,21,8,0:0:0:0:
207,72,42442,1,8,0:0:0:0:
221,115,42530,1,8,0:0:0:0:
250,151,42618,1,8,0:0:0:0:
289,174,42706,1,8,0:0:0:0:
405,184,42884,2,0,P|450:137|458:89,2,115,0|8|0,0:0|0:0|0:0,0:0:0:0:
405,184,43413,1,8,0:0:0:0:
388,300,43590,1,0,0:0:0:0:
290,345,43766,6,0,L|190:284,1,115,4|0,0:0|0:0,0:0:0:0:
96,140,44119,2,0,L|196:201,1,115,2|0,0:0|0:0,0:0:0:0:
367,206,44472,2,0,L|267:145,1,115,8|0,0:0|0:0,0:0:0:0:
173,6,44825,2,0,L|273:67,1,115,8|8,0:0|0:0,0:0:0:0:
384,169,45178,21,4,0:0:0:0:
318,307,45413,1,8,0:0:0:0:
165,285,45649,1,8,0:0:0:0:
138,134,45884,1,8,0:0:0:0:
274,62,46149,2,0,L|318:99,1,57.5,8|2,0:0|0:0,0:0:0:0:
359,205,46413,1,0,0:0:0:0:
282,290,46590,22,0,P|317:338|366:363,1,115,4|0,0:0|0:0,0:0:0:0:
230,175,46943,2,0,P|195:223|146:248,1,115,8|0,0:0|0:0,0:0:0:0:
261,266,47296,1,8,0:0:0:0:
327,172,47472,1,0,0:0:0:0:
258,80,47648,1,8,0:0:0:0:
149,118,47825,1,0,0:0:0:0:
151,233,48001,6,0,P|178:286|225:313,1,115,4|0,0:0|0:0,0:0:0:0:
394,347,48354,2,0,P|367:294|320:267,1,115,8|0,0:0|0:0,0:0:0:0:
275,349,48707,1,8,0:0:0:0:
223,246,48884,1,0,0:0:0:0:
304,165,49060,1,8,0:0:0:0:
408,217,49237,1,0,0:0:0:0:
390,332,49413,22,0,L|309:248,1,115,4|0,0:0|0:0,0:0:0:0:
396,58,49766,2,0,L|313:138,1,115,8|0,0:0|0:0,0:0:0:0:
122,52,50119,2,0,L|203:135,1,115,8|0,0:0|0:0,0:0:0:0:
116,326,50472,2,0,L|200:246,1,115,8|0,0:0|0:0,0:0:0:0:
314,138,50825,21,8,0:0:0:0:
311,250,51001,1,8,0:0:0:0:
199,247,51178,1,8,0:0:0:0:
202,134,51354,1,8,0:0:0:0:
314,138,51531,37,8,0:0:0:0:
336,195,51619,1,8,0:0:0:0:
311,250,51707,1,8,0:0:0:0:
254,272,51795,1,8,0:0:0:0:
199,247,51884,1,8,0:0:0:0:
177,191,51972,1,8,0:0:0:0:
202,134,52060,1,8,0:0:0:0:
259,114,52148,1,8,0:0:0:0:
314,138,52237,38,0,P|376:152|424:136,1,115,4|0,0:0|0:0,0:0:0:0:
292,24,52590,2,0,P|244:40|182:26,1,115,8|0,0:0|0:0,0:0:0:0:
76,164,52943,2,0,P|60:212|74:274,1,115,2|0,0:0|0:0,0:0:0:0:
220,364,53296,2,0,P|236:317|222:255,1,115,8|0,0:0|0:0,0:0:0:0:
360,148,53649,2,0,P|332:96|336:40,1,115,4|0,0:0|0:0,0:0:0:0:
166,124,54001,2,0,P|135:175|85:199,1,115,8|0,0:0|0:0,0:0:0:0:
243,305,54354,2,0,P|302:306|348:338,1,115,2|0,0:0|0:0,0:0:0:0:
360,148,54707,1,8,0:0:0:0:
166,124,54884,1,0,0:0:0:0:
243,305,55060,21,4,0:0:0:0:
256,192,55149,12,0,56296,0:0:0:0:
512,384,56472,21,0,0:0:0:0:
494,271,56649,1,8,0:0:0:0:
419,186,56825,1,8,0:0:0:0:
311,153,57001,1,8,0:0:0:0:
200,184,57178,5,8,0:0:0:0:
150,212,57266,1,8,0:0:0:0:
93,202,57354,1,8,0:0:0:0:
56,158,57443,1,8,0:0:0:0:
56,101,57531,1,8,0:0:0:0:
93,57,57619,1,8,0:0:0:0:
150,47,57707,1,8,0:0:0:0:
200,75,57796,1,8,0:0:0:0:
219,129,57884,54,0,P|236:188|276:224,1,115,4|0,1:0|0:0,0:0:0:0:
424,132,58237,2,0,P|364:117|313:133,1,115,12|0,0:0|0:0,0:0:0:0:
316,308,58590,2,0,P|358:263|369:211,1,115,2|0,0:0|0:0,0:0:0:0:
219,129,58943,1,8,0:0:0:0:
64,204,59119,1,0,0:0:0:0:
220,372,59296,2,0,P|220:292|204:264,1,115,2|0,0:0|0:0,0:0:0:0:
140,168,59649,2,0,P|120:120|132:60,1,115,8|0,0:0|0:0,0:0:0:0:
244,20,60001,1,2,0:0:0:0:
244,20,60178,2,0,P|285:51|304:109,1,115,0|8,0:0|0:0,0:0:0:0:
228,264,60531,6,0,P|324:200|436:192,1,230,0|0,0:0|0:0,0:0:0:0:
512,276,61060,2,0,P|463:306|407:305,1,115,8|0,0:0|0:0,2:0:0:0:
236,376,61413,1,2,0:0:0:0:
236,376,61590,2,0,P|284:345|340:346,1,115,0|8,0:0|0:0,2:0:0:0:
252,196,61943,1,0,0:0:0:0:
136,68,62119,2,0,P|72:164|76:280,1,230,4|8,0:0|0:0,0:0:0:0:
232,204,62649,1,0,0:0:0:0:
232,204,62825,2,0,P|257:255|308:282,2,115,8|0|8,0:0|0:0|0:0,0:0:0:0:
376,108,63354,1,0,0:0:0:0:
484,244,63531,22,0,P|416:336|308:368,1,230,12|8,0:0|0:0,0:0:0:0:
232,204,64060,1,0,0:0:0:0:
340,244,64237,2,0,P|364:192|360:136,1,115,2|0,0:0|0:0,0:0:0:0:
228,24,64590,2,0,P|204:76|208:132,1,115,8|0,0:0|0:0,0:0:0:0:
256,276,64943,2,0,P|152:336|44:340,1,230,2|8,0:0|0:0,0:0:0:0:
39,230,65472,2,0,P|147:225|256:276,1,230
356,328,66001,1,8,0:0:0:0:
464,288,66178,1,0,0:0:0:0:
504,180,66354,22,0,P|488:128|444:88,1,115,4|0,0:0|0:0,0:0:0:0:
280,208,66707,2,0,P|333:220|389:202,1,115,8|0,0:0|0:0,0:0:0:0:
368,0,67060,2,0,P|330:39|318:97,1,115,2|0,0:0|0:0,0:0:0:0:
389,202,67413,1,8,0:0:0:0:
268,160,67590,1,0,0:0:0:0:
100,196,67766,5,4,1:0:0:0:
52,360,67943,1,8,0:0:0:0:
108,368,68031,1,0,0:0:0:0:
163,354,68119,1,4,0:0:0:0:
100,196,68296,1,8,0:0:0:0:
0,56,68472,21,8,0:0:0:0:
47,24,68560,1,0,0:0:0:0:
103,13,68648,1,8,0:0:0:0:
159,25,68736,1,8,0:0:0:0:
206,58,68825,1,12,0:0:0:0:
272,216,69001,1,8,0:0:0:0:
100,196,69178,22,0,P|156:176|192:136,1,115,12|0,0:0|0:0,0:0:0:0:
328,28,69531,2,0,P|330:81|305:135,1,115,8|0,0:0|0:0,0:0:0:0:
200,276,69884,1,2,0:0:0:0:
308,244,70060,1,0,0:0:0:0:
420,276,70237,2,0,P|400:332|360:368,1,115,8|0,0:0|0:0,0:0:0:0:
200,276,70590,2,0,P|273:187|294:77,1,230,2|8,0:0|0:0,0:0:0:0:
217,57,71119,2,0,P|180:163|200:276,1,230
432,260,71649,1,8,0:0:0:0:
316,132,71825,1,0,0:0:0:0:
420,84,72001,6,0,P|404:144|296:268,1,230,4|8,0:0|0:0,0:0:0:0:
338,50,72531,1,0,0:0:0:0:
296,268,72707,2,0,P|307:103|338:50,1,230,4|8,0:0|0:0,0:0:0:0:
120,140,73237,1,0,0:0:0:0:
278,335,73413,1,8,0:0:0:0:
369,100,73590,1,8,0:0:0:0:
120,140,73766,1,8,0:0:0:0:
120,140,73854,1,8,0:0:0:0:
120,140,73943,1,8,0:0:0:0:
120,140,74031,1,0,0:0:0:0:
120,140,74119,22,0,L|196:128,1,57.5,4|0,1:0|0:0,0:0:0:0:
369,100,74384,2,0,L|341:172,1,57.5,8|0,0:0|0:0,0:0:0:0:
278,335,74649,2,0,L|230:275,1,57.5,4|0,1:1|0:0,0:0:0:0:
208,244,74825,22,0,P|160:280|104:288,1,115,12|0,0:0|0:0,0:0:0:0:
120,140,75178,1,8,0:0:0:0:
284,196,75354,1,0,0:0:0:0:
284,196,75443,1,0,0:0:0:0:
284,196,75531,2,0,P|291:255|270:308,1,115,8|0,0:0|0:0,0:0:0:0:
284,108,75884,2,0,P|339:131|374:176,1,115,8|0,0:0|0:0,0:0:0:0:
452,316,76237,6,0,P|396:292|361:247,1,115,8|0,0:0|0:0,0:0:0:0:
132,384,76590,2,0,P|155:328|200:293,1,115,8|0,0:0|0:0,0:0:0:0:
60,68,76943,2,0,P|115:91|150:136,1,115,8|0,0:0|0:0,0:0:0:0:
380,0,77296,2,0,P|356:55|311:90,1,115,8|0,0:0|0:0,0:0:0:0:
148,133,77649,21,4,0:0:0:0:
197,299,77825,1,0,0:0:0:0:
363,250,78001,1,8,0:0:0:0:
313,83,78177,1,0,0:0:0:0:
115,195,78354,1,8,0:0:0:0:
259,332,78530,1,0,0:0:0:0:
396,188,78706,1,8,0:0:0:0:
252,51,78882,1,0,0:0:0:0:
12,36,79060,21,0,0:0:0:0:
7,53,79148,1,0,0:0:0:0:
3,70,79236,1,0,0:0:0:0:
2,88,79324,1,0,0:0:0:0:
2,106,79412,1,0,0:0:0:0:
3,124,79501,1,0,0:0:0:0:
7,142,79589,1,0,0:0:0:0:
12,159,79677,1,0,0:0:0:0:
18,176,79765,1,0,0:0:0:0:
27,192,79854,1,0,0:0:0:0:
36,207,79942,1,0,0:0:0:0:
47,221,80030,1,0,0:0:0:0:
60,234,80118,1,0,0:0:0:0:
73,246,80207,1,0,0:0:0:0:
88,257,80295,1,0,0:0:0:0:
103,266,80383,1,0,0:0:0:0:
120,274,80472,6,0,P|180:280|228:256,1,115,12|0,0:0|0:0,0:0:0:0:
265,158,80825,1,4,0:0:0:0:
120,274,81001,1,0,0:0:0:0:
304,266,81178,1,8,0:0:0:0:
150,162,81355,1,0,0:0:0:0:
214,338,81531,1,8,0:0:0:0:
200,84,81707,22,0,P|292:156|404:172,1,230,4|0,0:0|0:0,0:0:0:0:
413,267,82237,1,8,0:0:0:0:
343,95,82413,1,0,0:0:0:0:
500,195,82590,1,8,0:0:0:0:
314,207,82766,1,0,0:0:0:0:
459,87,82943,1,8,0:0:0:0:
264,96,83119,22,0,P|228:200|136:272,1,230,4|0,0:0|0:0,0:0:0:0:
109,173,83649,1,8,0:0:0:0:
96,359,83825,1,0,0:0:0:0:
215,217,84002,1,8,0:0:0:0:
35,262,84178,1,0,0:0:0:0:
208,331,84355,1,8,0:0:0:0:
28,176,84531,54,0,P|84:72|180:16,1,230,4|0,0:0|0:0,0:0:0:0:
179,297,85060,1,4,0:0:0:0:
344,71,85237,1,0,0:0:0:0:
78,157,85413,1,8,0:0:0:0:
344,243,85590,1,4,0:0:0:0:
179,17,85766,1,12,0:0:0:0:
211,63,85854,1,0,0:0:0:0:
224,119,85943,2,0,P|224:152|216:176,1,57.5
144,264,86119,38,0,P|206:277|245:309,1,115,12|0,0:0|0:0,0:0:0:0:
69,255,86472,1,8,0:0:0:0:
69,71,86648,1,0,0:0:0:0:
244,14,86824,1,2,0:0:0:0:
352,163,87001,1,0,0:0:0:0:
245,309,87178,1,8,0:0:0:0:
97,299,87354,22,0,P|210:231|306:225,1,230,12|0,0:0|0:0,0:0:0:0:
192,384,87884,1,8,0:0:0:0:
6,323,88060,1,0,0:0:0:0:
6,128,88237,1,2,0:0:0:0:
192,67,88413,1,0,0:0:0:0:
306,225,88590,1,8,0:0:0:0:
99,313,88766,22,0,P|130:184|194:113,1,230,12|0,0:0|0:0,0:0:0:0:
391,49,89296,1,8,0:0:0:0:
512,216,89472,1,0,0:0:0:0:
391,384,89648,1,2,0:0:0:0:
194,320,89824,1,0,0:0:0:0:
194,113,90001,1,8,0:0:0:0:
413,183,90178,6,0,P|314:248|203:253,1,230,4|0,0:0|0:0,0:0:0:0:
90,249,90707,1,4,0:0:0:0:
150,51,90884,1,0,0:0:0:0:
357,47,91060,1,0,0:0:0:0:
425,243,91237,1,4,0:0:0:0:
260,368,91413,1,12,0:0:0:0:
90,249,91590,2,0,P|121:233|135:217,1,57.5,8|0,0:0|0:0,0:0:0:0:
156,104,91766,22,0,P|231:108|348:204,1,230,4|0,0:0|0:0,0:0:0:0:
449,374,92296,1,0,0:0:0:0:
449,374,92384,1,0,0:0:0:0:
449,374,92472,2,0,P|351:308|316:304,1,115,8|0,0:0|0:0,0:0:0:0:
240,300,92825,1,8,0:0:0:0:
80,365,93001,38,0,P|47:252|77:147,1,230,4|0,0:0|0:0,0:0:0:0:
77,146,93443,1,0,0:0:0:0:
77,146,93531,1,8,0:0:0:0:
202,29,93707,1,0,0:0:0:0:
202,29,93796,1,0,0:0:0:0:
202,29,93884,2,0,P|218:85|203:138,2,115,8|0|8,0:0|0:0|0:0,0:0:0:0:
77,146,94413,22,0,P|168:220|280:220,1,230,4|0,0:0|0:0,0:0:0:0:
332,200,94854,1,0,0:0:0:0:
380,168,94943,1,8,0:0:0:0:
288,24,95119,1,0,0:0:0:0:
256,72,95208,1,0,0:0:0:0:
234,127,95297,2,0,P|240:232|264:272,1,115,8|0,0:0|0:0,0:0:0:0:
296,328,95649,1,8,0:0:0:0:
440,208,95825,21,4,0:0:0:0:
448,264,95913,1,0,0:0:0:0:
432,320,96001,2,0,P|397:365|344:385,1,115
332,272,96354,2,0,P|279:294|223:284,1,115,4|0,0:0|0:0,0:0:0:0:
264,176,96707,2,0,P|207:168|163:132,1,115,4|0,0:0|0:0,0:0:0:0:
207,16,97060,1,4,0:0:0:0:
235,52,97148,1,0,0:0:0:0:
274,76,97236,1,0,0:0:0:0:
319,82,97324,1,0,0:0:0:0:
366,84,97413,38,0,P|432:184|432:292,1,230,12|8,0:0|0:0,0:0:0:0:
220,244,97943,1,0,0:0:0:0:
220,244,98031,1,0,0:0:0:0:
220,244,98119,2,0,P|338:237|432:291,1,230,2|8,0:0|0:0,0:0:0:0:
145,299,98649,38,0,P|80:200|80:92,1,230,4|0,0:0|0:0,0:0:0:0:
291,140,99178,1,8,0:0:0:0:
79,92,99354,1,0,0:0:0:0:
79,92,99443,1,0,0:0:0:0:
79,92,99531,2,0,P|173:146|292:140,1,230,2|8,0:0|0:0,0:0:0:0:
433,292,100060,22,0,P|339:238|220:244,1,230,4|0,0:0|0:0,0:0:0:0:
268,32,100590,1,8,0:0:0:0:
221,244,100766,1,0,0:0:0:0:
221,244,100854,1,0,0:0:0:0:
221,244,100943,2,0,P|275:150|268:31,1,230,2|8,0:0|0:0,0:0:0:0:
268,31,101472,1,12,0:0:0:0:
95,179,101649,37,8,0:0:0:0:
243,352,101825,1,8,0:0:0:0:
416,204,102001,1,8,0:0:0:0:
268,31,102178,1,8,0:0:0:0:
96,179,102355,5,8,0:0:0:0:
130,204,102443,1,8,0:0:0:0:
169,224,102531,1,8,0:0:0:0:
210,237,102619,1,8,0:0:0:0:
252,244,102707,1,8,0:0:0:0:
295,244,102796,1,8,0:0:0:0:
338,237,102884,1,8,0:0:0:0:
379,223,102972,1,8,0:0:0:0:
417,204,103059,21,12,0:0:0:0:
151,69,103237,1,8,0:0:0:0:
243,353,103413,1,8,0:0:0:0:
378,87,103590,1,8,0:0:0:0:
94,179,103766,1,8,0:0:0:0:
360,314,103943,1,8,0:0:0:0:
268,30,104119,1,8,0:0:0:0:
133,296,104296,6,0,L|307:146,1,230,4|8,1:0|0:0,0:0:0:0:
418,48,104825,1,8,0:0:0:0:
164,97,105001,1,8,0:0:0:0:
334,293,105178,1,8,0:0:0:0:
277,0,105354,1,8,0:0:0:0:
193,244,105531,1,8,0:0:0:0:
447,195,105707,1,8,0:0:0:0:
227,64,105884,21,4,1:0:0:0:
151,71,106001,1,8,0:0:0:0:
83,105,106119,1,8,0:0:0:0:
31,160,106236,1,8,0:0:0:0:
2,232,106354,1,8,0:0:0:0:
0,308,106472,1,8,0:0:0:0:
65,344,106589,1,8,0:0:0:0:
127,308,106707,1,8,0:0:0:0:
128,235,106824,1,8,0:0:0:0:
65,198,106942,37,8,0:0:0:0:
2,232,107060,1,8,0:0:0:0:
0,307,107177,1,12,0:0:0:0:
256,192,107296,12,0,109854,0:0:0:0:
256,192,109943,21,0,0:0:0:0:
256,192,110031,1,0,0:0:0:0:
256,192,110119,1,4,1:0:0:0:
