osu file format v13

[General]
AudioFilename: Catch.mp3
AudioLeadIn: 0
PreviewTime: -1
Countdown: 0
SampleSet: None
StackLeniency: 0.7
Mode: 2
LetterboxInBreaks: 1
WidescreenStoryboard: 1

[Editor]
DistanceSpacing: 0.9
BeatDivisor: 1
GridSize: 32
TimelineZoom: 0.6999999

[Metadata]
Title:Catch the Beat practice
TitleUnicode:Catch the Beat practice
Artist:-[ Kami ]-
ArtistUnicode:-[ Kami ]-
Creator:-[ Kami ]-
Version:Normal Practice AR2
Source:
Tags:nwc midi mp3 catch practice
BeatmapID:458314
BeatmapSetID:189600

[Difficulty]
HPDrainRate:5
CircleSize:5
OverallDifficulty:10
ApproachRate:2
SliderMultiplier:1.4
SliderTickRate:1

[Events]
//Background and Video events
0,0,"bg.png",0,0
//Break Periods
//Storyboard Layer 0 (Background)
//Storyboard Layer 1 (Fail)
//Storyboard Layer 2 (Pass)
//Storyboard Layer 3 (Foreground)
//Storyboard Sound Samples
//Background Colour Transformations
3,100,163,162,255

[TimingPoints]
400,400,4,1,0,100,1,0

[HitObjects]
32,192,400,5,0,0:0:0:0:
32,192,800,1,0,0:0:0:0:
32,192,1200,5,0,0:0:0:0:
96,192,1600,1,0,0:0:0:0:
32,192,2000,5,0,0:0:0:0:
160,192,2400,1,0,0:0:0:0:
32,192,2800,5,0,0:0:0:0:
224,192,3200,1,0,0:0:0:0:
32,192,3600,5,0,0:0:0:0:
288,192,4000,1,0,0:0:0:0:
32,192,4400,5,0,0:0:0:0:
352,192,4800,1,0,0:0:0:0:
32,192,5200,5,0,0:0:0:0:
416,192,5600,1,0,0:0:0:0:
32,192,6000,5,0,0:0:0:0:
480,192,6400,1,0,0:0:0:0:
480,192,6800,5,0,0:0:0:0:
480,192,7200,1,0,0:0:0:0:
480,192,7600,5,0,0:0:0:0:
416,192,8000,1,0,0:0:0:0:
480,192,8400,5,0,0:0:0:0:
352,192,8800,1,0,0:0:0:0:
480,192,9200,5,0,0:0:0:0:
288,192,9600,1,0,0:0:0:0:
480,192,10000,5,0,0:0:0:0:
224,192,10400,1,0,0:0:0:0:
480,192,10800,5,0,0:0:0:0:
160,192,11200,1,0,0:0:0:0:
480,192,11600,5,0,0:0:0:0:
96,192,12000,1,0,0:0:0:0:
480,192,12400,5,0,0:0:0:0:
32,192,12800,1,0,0:0:0:0:
32,192,13200,5,0,0:0:0:0:
96,192,13600,1,0,0:0:0:0:
160,192,14000,1,0,0:0:0:0:
224,192,14400,1,0,0:0:0:0:
288,192,14800,1,0,0:0:0:0:
352,192,15200,1,0,0:0:0:0:
416,192,15600,1,0,0:0:0:0:
480,192,16000,1,0,0:0:0:0:
480,192,16400,5,0,0:0:0:0:
416,192,16800,1,0,0:0:0:0:
352,192,17200,1,0,0:0:0:0:
288,192,17600,1,0,0:0:0:0:
224,192,18000,1,0,0:0:0:0:
160,192,18400,1,0,0:0:0:0:
96,192,18800,1,0,0:0:0:0:
32,192,19200,1,0,0:0:0:0:
32,192,19600,5,0,0:0:0:0:
480,192,20400,1,0,0:0:0:0:
32,192,21200,1,0,0:0:0:0:
480,192,22000,1,0,0:0:0:0:
480,192,22800,5,0,0:0:0:0:
32,192,23600,1,0,0:0:0:0:
480,192,24400,1,0,0:0:0:0:
32,192,25200,1,0,0:0:0:0:
32,192,26000,5,0,0:0:0:0:
288,192,26400,1,0,0:0:0:0:
224,192,26800,1,0,0:0:0:0:
480,192,27200,1,0,0:0:0:0:
480,192,27600,5,0,0:0:0:0:
224,192,28000,1,0,0:0:0:0:
288,192,28400,1,0,0:0:0:0:
32,192,28800,1,0,0:0:0:0:
32,192,29200,5,0,0:0:0:0:
288,192,29600,1,0,0:0:0:0:
224,192,30000,1,0,0:0:0:0:
480,192,30400,1,0,0:0:0:0:
480,192,30800,5,0,0:0:0:0:
224,192,31200,1,0,0:0:0:0:
288,192,31600,1,0,0:0:0:0:
32,192,32000,1,0,0:0:0:0:
32,192,32400,5,0,0:0:0:0:
96,192,32600,1,0,0:0:0:0:
160,192,32800,1,0,0:0:0:0:
224,192,33000,1,0,0:0:0:0:
288,192,33200,1,0,0:0:0:0:
352,192,33400,1,0,0:0:0:0:
416,192,33600,1,0,0:0:0:0:
480,192,33800,1,0,0:0:0:0:
480,192,34000,5,0,0:0:0:0:
416,192,34200,1,0,0:0:0:0:
352,192,34400,1,0,0:0:0:0:
288,192,34600,1,0,0:0:0:0:
224,192,34800,1,0,0:0:0:0:
160,192,35000,1,0,0:0:0:0:
96,192,35200,1,0,0:0:0:0:
32,192,35400,1,0,0:0:0:0:
480,192,36466,5,0,0:0:0:0:
