osu file format v5

[General]
AudioFilename: 8.Black Cherry.mp3
AudioLeadIn: 2000
AudioHash: a9109b25201db6aacacfc18d5dac1772
PreviewTime: -1
Countdown: 1
SampleSet: Normal

[Metadata]
Title:Black Cherry
Artist:(Yasu) Acid Black Cherry
Creator:AuRevoir
Version:Hard

[Difficulty]
HPDrainRate:6
CircleSize:5
OverallDifficulty:6
SliderMultiplier: 1.4
SliderTickRate: 1

[Events]
//Background and Video events
//Break Periods
2,67180,74205
2,181740,197350
//Storyboard Layer 0 (Background)
//Storyboard Layer 1 (Failing)
//Storyboard Layer 2 (Passing)
//Storyboard Layer 3 (Foreground)
//Storyboard Sound Samples
//Background Colour Transformations
3,100,163,162,255

[TimingPoints]
1905,387.032208248258,4,1,0,100
75256,260.926288323549,4,1,0,100

[HitObjects]
128,64,1959,1,0
192,64,2346,1,0
256,64,2733,1,0
320,64,3120,1,0
320,160,4668,5,0
256,160,5055,1,0
192,160,5442,1,0
128,160,5829,1,0
64,160,6990,5,0
64,192,7377,1,0
64,224,7764,2,0,B|64:224|64:352,1,140
128,224,9312,6,0,B|128:224|256:224|192:320|384:256,1,140
320,288,10086,1,0
384,288,10473,1,0
448,288,10860,1,0
320,224,11634,5,0
320,160,12021,1,0
256,160,12408,1,0
256,224,12795,1,0
192,224,13182,2,2,B|192:224|128:224|128:352|0:352,1,140
96,224,13956,6,0,C|96:224|96:64|384:96|256:320|224:288,1,700
384,288,16279,1,0
320,288,16666,1,0
256,288,17053,1,0
192,288,17440,1,0
128,320,17827,2,0,C|128:320|-9:213|433:226|269:115|96:0,1,980
96,224,20923,5,0
192,192,21310,1,0
288,224,21697,1,0
288,128,22084,1,0
256,64,22471,2,4,C|256:64|62:82|32:320|349:311|352:0,1,980
256,128,26342,5,0
256,32,26729,1,0
128,32,27116,1,0
128,128,27503,1,0
128,224,27890,1,0
256,224,28277,1,0
256,320,28664,1,0
128,320,29051,1,2
416,320,29825,5,0
416,192,30212,1,0
416,64,30599,1,0
288,64,30986,1,0
288,192,31373,1,0
288,320,31760,1,0
160,192,32147,1,2
160,192,32534,1,6
160,64,32921,5,0
32,64,33308,1,0
32,192,33695,1,0
32,352,34082,1,0
96,352,34469,2,0,C|96:352|384:352|384:320,1,280
352,288,35630,1,0
320,288,36017,5,0
288,288,36404,1,0
256,288,36791,1,0
224,288,37178,1,0
64,288,37565,1,0
96,288,37952,1,0
128,288,38340,1,2
160,288,38727,1,2
192,288,39114,6,0,B|192:288|32:128|480:64|448:96,1,420
448,160,40662,2,0,B|448:160|448:352|32:224,1,420
64,160,42210,2,0,B|64:160|96:32|128:0|416:32|256:288|224:288,1,420
192,256,43758,1,0
96,256,44145,1,0
96,128,44532,1,0
192,128,44919,1,0
288,128,45306,1,0
384,192,46467,5,0
320,256,46854,1,0
256,320,47241,1,0
192,384,47628,1,0
128,320,48015,1,0
64,256,48402,1,0
128,192,48789,1,0
192,128,49176,1,0
256,64,49563,1,0
256,160,49951,5,2
256,160,50338,1,2
256,160,50531,1,2
256,160,50918,1,2
192,192,51499,5,0
192,128,51886,1,0
256,128,52273,1,0
256,192,52660,1,0
320,192,53047,1,0
320,128,53434,1,0
384,128,53821,1,0
384,192,54208,1,0
372,253,54982,6,0,B|372:253|148:253,1,140
232,254,55756,2,2,B|232:254|232:158|232:62,1,140
232,113,56530,2,0,B|232:113|328:113|360:113,1,140
373,115,57304,2,2,B|373:115|373:243,1,140
352,256,58078,5,0
320,256,58465,1,0
288,256,58852,1,0
256,256,59239,2,0,B|256:256|-32:256|-32:0,1,420
32,32,60787,2,2,B|32:32|351:27|320:256,1,420
192,160,62336,5,0
256,160,62723,1,0
320,160,63110,1,0
256,224,63497,1,4
256,192,63884,12,0,66593
256,128,66980,5,4
160,224,75255,5,0
192,224,75516,1,0
224,224,75777,1,0
256,224,76038,1,0
224,256,76299,1,0
192,256,76560,1,0
160,256,76821,1,0
128,256,77082,1,0
64,320,77342,5,2
96,288,77603,1,0
128,256,77864,1,2
160,224,78124,1,0
192,192,78385,1,2
224,160,78646,1,0
256,128,78907,1,2
288,96,79168,1,0
256,64,79429,5,0
224,96,79690,1,0
192,128,79951,1,0
160,160,80212,1,0
128,192,80473,1,0
96,224,80733,1,0
64,256,80994,1,0
32,288,81255,1,0
96,320,81516,6,2,B|96:320|384:320|384:32|384:64,1,420
352,32,82560,2,0,B|352:32|64:32|64:288,1,420
160,288,83603,5,0
160,256,83864,1,0
160,224,84125,1,0
160,192,84386,1,0
160,160,84647,1,0
160,128,84908,1,0
160,96,85169,1,0
160,64,85430,1,0
256,64,85691,5,2
256,96,85951,1,0
256,128,86212,1,2
256,160,86473,1,0
256,192,86734,1,2
256,224,86995,1,0
256,256,87256,1,2
256,288,87517,1,0
352,288,87778,5,0
320,256,88039,1,0
288,224,88299,1,0
256,192,88560,1,0
224,160,88821,1,0
192,128,89082,1,0
160,96,89343,1,0
128,64,89604,1,0
128,128,89865,6,2,C|128:128|256:64|384:128,2,280
192,96,91952,6,0,C|192:96|384:96|448:320|416:288,1,420
384,320,92996,6,0,C|384:320|128:320|128:128,1,420
64,160,94040,6,0,C|64:160|224:160|192:160,5,140
256,128,95866,5,0
256,224,96388,1,0
192,192,97431,5,0
192,128,97692,1,0
256,128,97953,1,0
256,192,98214,1,0
320,192,98475,1,0
320,128,98997,1,4
416,128,99518,5,0
416,224,99779,1,0
288,224,100040,1,0
288,128,100301,1,0
350,176,100823,1,2
192,128,101345,5,0
192,224,101606,1,0
64,224,101867,1,0
64,128,102128,1,0
125,177,102388,1,2
143,162,102649,2,4,C|143:162|350:22|501:-12,1,280
352,96,103432,5,4
352,128,103693,1,4
352,160,103954,1,4
352,192,104215,1,4
352,224,104475,2,4,L|352:224|352:352|64:352,1,280
201,293,105258,5,4
201,261,105519,1,4
201,229,105780,1,4
201,197,106041,1,4
199,172,106302,2,4,L|199:172|29:19|221:19|395:175|392:173,5,560
288,192,111781,5,0
288,256,112042,1,0
224,256,112303,1,0
224,192,112564,1,0
256,64,113085,5,0
256,128,113607,1,0
192,160,114129,5,0
192,224,114390,1,0
256,224,114651,1,0
256,160,114912,1,0
320,160,115173,1,0
320,224,115695,1,4
416,256,116216,5,0
416,160,116477,1,0
288,160,116738,1,0
288,256,116999,1,0
350,208,117521,1,2
192,256,118043,5,0
192,160,118304,1,0
64,160,118565,1,0
64,256,118826,1,0
125,207,119086,1,2
134,215,119347,2,4,C|134:215|335:367|492:389,1,280
352,288,120130,5,4
352,256,120391,1,4
352,224,120652,1,4
352,192,120913,1,4
352,168,121173,2,4,L|352:168|352:40|64:40,1,280
201,91,121956,5,4
201,123,122217,1,4
201,155,122478,1,4
201,187,122739,1,4
202,205,123000,2,4,L|202:205|32:358|246:357|398:202|395:204,5,560
171,128,129522,5,0
224,128,129783,1,0
288,128,130044,1,0
320,128,130305,1,0
352,192,130761,5,0
320,192,130826,1,0
288,192,131001,1,0
288,192,131087,5,0
320,192,131261,1,0
352,192,131348,1,0
320,256,131609,5,0
288,256,131870,1,0
224,256,132131,1,0
192,256,132392,1,0
160,192,132848,5,0
192,192,132913,1,0
224,192,133088,1,0
224,192,133175,5,0
192,192,133348,1,0
160,192,133435,1,0
256,192,133696,5,0
256,192,134218,1,0
256,192,134740,1,0
256,192,135262,1,0
334,172,135784,2,0,C|334:172|294:85|203:89|161:181|183:242|324:241|338:154|366:134,1,560
192,160,137610,6,0,B|192:160|128:128|96:256|224:288|288:192|320:320,1,280
384,288,138661,6,0,B|384:288|448:320|480:192|352:160|288:256|256:128,1,280
320,96,139697,5,0
256,128,139958,1,0
192,96,140219,1,0
128,128,140480,1,0
124,107,140741,6,0,B|124:107|81:344|305:343|433:344|380:4,1,560
389,104,142045,6,0,B|389:104|6:335,1,420
29,320,143089,6,0,B|29:320|480:320|448:320,1,420
449,320,144133,6,0,B|449:320|71:87|30:66,1,420
90,101,145176,1,2
90,101,145437,1,2
90,101,145698,1,2
90,101,145959,1,6
128,96,146220,6,0,B|128:96|195:307|323:307|387:51,1,420
416,96,147263,6,0,B|416:96|105:93,2,280
328,223,149090,5,0
309,190,149351,1,0
277,222,149612,1,0
252,189,149873,1,0
221,222,150133,1,0
195,190,150394,1,0
192,128,151177,5,0
211,95,151438,1,0
243,127,151699,1,0
268,94,151960,1,0
299,127,152220,1,0
325,95,152481,1,0
416,32,153264,6,0,B|416:32|49:127|457:314|64:320|55:354|-32:352,1,560
256,96,154830,5,0
224,128,155090,1,0
288,128,155351,1,0
256,160,155612,2,0,B|256:160|350:284|123:283|160:128|352:64,1,280
256,64,156917,6,0,C|256:64|96:64,1,140
116,64,157439,2,0,L|116:64|116:205|128:192,1,140
116,204,157960,2,0,L|116:204|254:204,1,140
255,206,158482,2,0,L|255:206|400:206,1,140
394,207,159004,2,0,L|394:207|394:74,1,140
352,96,159526,5,0
320,128,159786,1,0
288,160,160057,2,0,L|288:160|288:320|192:192,1,280
224,160,160830,6,0,C|224:160|160:160,1,140
96,224,161352,1,0
128,256,161613,1,0
160,288,161874,1,0
192,288,162135,1,0
224,288,162396,1,0
256,288,162657,1,0
288,256,162917,1,0
320,224,163178,1,0
320,192,163439,6,0,C|320:192|480:192,1,140
460,192,163961,2,0,L|460:192|416:288|224:288|192:160,1,420
256,192,165005,5,0
320,128,165526,1,0
256,96,165787,1,0
192,128,166048,1,0
160,224,166570,5,0
192,224,166831,1,0
224,224,167092,1,0
256,224,167353,1,0
288,224,167614,1,0
320,224,168136,5,0
328,224,168299,1,0
335,224,168396,1,0
341,224,168559,1,0
256,192,169179,5,0
320,128,169700,1,0
256,96,169961,1,0
192,128,170222,1,0
224,224,170744,5,0
288,224,171005,1,0
288,192,171266,5,0
288,160,171429,1,0
288,128,171625,1,0
256,128,171756,5,0
256,160,171919,1,0
256,192,172115,1,0
224,192,172277,5,0
224,160,172440,1,0
224,128,172636,1,0
224,160,172832,5,0
288,160,172995,1,0
256,192,173288,5,0
320,256,173875,1,0
256,288,174136,1,0
192,256,174397,1,0
160,160,174919,5,0
192,160,175180,1,0
224,160,175441,1,0
256,160,175702,1,0
288,160,175963,1,0
320,160,176485,5,0
328,160,176648,1,0
335,160,176745,1,0
341,160,176908,1,0
256,192,177528,5,0
320,256,178049,1,0
256,288,178310,1,0
192,256,178571,1,0
224,160,179093,5,0
288,160,179354,1,0
288,192,179615,5,0
288,224,179778,1,0
288,256,179974,1,0
256,256,180105,5,0
256,224,180268,1,0
256,192,180464,1,0
224,192,180626,5,0
224,224,180789,1,0
224,256,180985,1,0
256,224,181181,5,0
192,224,198400,5,0
224,224,198661,1,0
288,224,198922,1,0
320,224,199183,1,0
356,155,199639,5,0
324,155,199704,1,0
292,155,199879,1,0
292,155,199965,1,0
324,155,200139,1,0
356,155,200226,1,0
320,96,200487,5,0
288,96,200748,1,0
224,96,201009,1,0
192,96,201270,1,0
164,155,201726,5,0
196,155,201791,1,0
228,155,201966,1,0
228,155,202052,1,0
196,155,202226,1,0
164,155,202313,1,0
260,155,202574,5,0
260,155,203096,1,0
260,155,203618,1,0
260,155,204140,1,0
338,175,204662,2,0,C|338:175|298:262|207:258|165:166|187:105|328:106|342:193|370:213,1,560
320,160,206501,6,0,B|320:160|384:128|416:256|288:288|224:192|192:320,1,280
128,288,207552,6,0,B|128:288|64:320|32:192|160:160|224:256|256:128,1,280
192,96,208575,5,0
256,128,208836,1,0
320,96,209097,1,0
384,128,209358,1,0
388,107,209619,6,0,B|388:107|431:344|207:343|79:344|132:4,1,560
123,104,210923,6,0,B|123:104|506:335,1,420
483,320,211967,6,0,B|483:320|32:320|64:320,1,420
63,320,213011,6,0,B|63:320|441:87|482:66,1,420
422,101,214054,1,2
422,101,214315,1,2
422,101,214576,1,2
422,101,214837,1,6
384,128,215098,6,0,B|384:128|317:339|189:339|125:83,1,420
160,128,216141,6,0,B|160:128|471:125,2,280
184,223,217968,5,0
203,190,218229,1,0
235,222,218490,1,0
260,189,218751,1,0
291,222,219011,1,0
317,190,219272,1,0
320,128,220055,5,0
301,95,220316,1,0
269,127,220577,1,0
244,94,220838,1,0
213,127,221098,1,0
187,95,221359,1,0
96,32,222142,6,0,B|96:32|463:127|55:314|448:320|457:354|544:352,1,560
256,96,223708,5,0
288,128,223968,1,0
224,128,224229,1,0
256,160,224490,2,0,B|256:160|162:284|389:283|352:128|160:64,1,280
256,64,225795,6,0,C|256:64|416:64,1,140
396,64,226317,2,0,L|396:64|396:205|384:192,1,140
396,204,226838,2,0,L|396:204|258:204,1,140
257,206,227360,2,0,L|257:206|112:206,1,140
118,207,227882,2,0,L|118:207|118:74,1,140
160,96,228404,5,0
192,128,228664,1,0
224,160,228941,2,0,L|224:160|224:320|320:192,1,280
288,160,229708,6,0,C|288:160|352:160,1,140
416,224,230230,1,0
384,256,230491,1,0
352,288,230752,1,0
320,288,231013,1,0
288,256,231274,1,0
256,224,231535,1,4
192,192,232056,6,0,C|192:192|32:192,1,140
52,192,232578,2,0,L|52:192|3:354|256:355|256:96,1,560
256,192,233883,5,0
224,160,234144,1,0
256,128,234405,1,0
288,160,234666,1,0
256,160,234926,1,0
320,224,235448,5,0
288,224,235709,1,0
256,224,235970,1,0
224,224,236231,1,0
192,224,236492,1,0
232,127,237014,5,0
240,128,237144,1,0
247,128,237274,1,0
252,129,237405,1,0
256,192,238057,5,0
192,128,238578,1,0
256,128,238839,1,0
320,128,239100,1,0
256,64,239362,6,0,L|256:64|256:352,3,280
256,344,241188,1,0
256,192,242232,12,0,248232
224,96,248754,1,2
224,96,248982,1,2
224,96,249113,1,2
192,96,249537,1,2
192,96,249765,1,2
192,96,250059,1,2
192,96,250189,1,2
192,96,250450,1,2
256,192,250580,12,0,256581
288,96,257103,1,2
288,96,257331,1,2
288,96,257462,1,2
320,96,257886,1,2
320,96,258114,1,2
320,96,258408,1,2
320,96,258538,1,2
320,96,258799,1,2
256,192,259190,12,0,262060
