osu file format v14

[General]
AudioFilename: Morning Glory.mp3
AudioLeadIn: 0
PreviewTime: 52350
Countdown: 0
SampleSet: Soft
StackLeniency: 0.7
Mode: 0
LetterboxInBreaks: 0
WidescreenStoryboard: 0

[Editor]
DistanceSpacing: 1.25
BeatDivisor: 6
GridSize: 4
TimelineZoom: 2.799999

[Metadata]
Title:Morning Glory
TitleUnicode:Morning Glory
Artist:(K)NoW_NAME
ArtistUnicode:(K)NoW_NAME
Creator:kunka
Version:Normal
Source:サクラクエスト
Tags:sakura quest opening tv size kunkakunkakunkakunka know name
BeatmapID:1272294
BeatmapSetID:596015

[Difficulty]
HPDrainRate:4
CircleSize:3.5
OverallDifficulty:5
ApproachRate:5.5
SliderMultiplier:0.9
SliderTickRate:1

[Events]
//Background and Video events
Video,0,"Morning Glory.avi"
0,0,"BG.jpg",0,0
//Break Periods
//Storyboard Layer 0 (Background)
//Storyboard Layer 1 (Fail)
//Storyboard Layer 2 (Pass)
//Storyboard Layer 3 (Foreground)
//Storyboard Sound Samples

[TimingPoints]
590,272.727272727273,4,2,1,5,1,0
2771,-100,4,2,1,65,0,0
9317,-100,4,2,2,65,0,0
11499,-111.111111111111,4,2,3,45,0,0
26771,-100,4,2,4,65,0,0
31135,-111.111111111111,4,2,1,50,0,0
39317,-111.111111111111,4,2,4,50,0,0
39862,-111.111111111111,4,2,1,50,0,0
44226,-111.111111111111,4,2,1,55,0,0
48590,-100,4,2,1,60,0,0
51850,272.727272727273,4,2,4,60,1,0
52940,-100,4,2,4,65,0,1
58940,-100,4,2,3,65,0,1
59213,-100,4,2,4,65,0,1
63304,-100,4,2,3,65,0,1
63850,-100,4,2,4,65,0,1
72577,-100,4,2,1,65,0,0
73122,-100,4,2,1,55,0,0
73668,-100,4,2,1,45,0,0
74213,-100,4,2,1,55,0,0
74759,-100,4,2,1,65,0,1
79122,-100,4,2,1,75,0,1
83486,-100,4,2,1,55,0,0
85077,-100,4,2,1,65,0,0
85668,-100,4,2,3,65,0,0

[Colours]
Combo1 : 255,128,255
Combo2 : 128,255,128
Combo3 : 128,255,255
Combo4 : 255,128,128
Combo5 : 255,255,128

[HitObjects]
266,167,2771,6,0,P|221:150|178:158,2,90,6|8|0,0:0|0:0|0:0,0:0:0:0:
341,251,3590,1,2,0:0:0:0:
415,167,3862,2,0,P|432:122|424:79,2,90,2|8|0,0:0|0:0|0:0,0:0:0:0:
341,251,4680,1,6,0:0:0:0:
415,335,4953,6,0,P|459:352|502:344,2,90,6|8|0,0:0|0:0|0:0,0:0:0:0:
304,356,5771,1,8,0:0:0:0:
197,318,6044,2,0,P|152:308|107:306,1,90,6|8,0:0|0:0,0:0:0:0:
40,215,6590,2,0,P|36:169|55:129,1,90,6|8,0:0|0:0,0:0:0:0:
135,52,7135,6,0,P|179:54|223:63,1,90,6|8,0:0|0:0,0:0:0:0:
332,94,7680,2,0,P|376:84|420:81,1,90,2|8,0:0|0:0,0:0:0:0:
476,132,8135,1,0,0:0:0:0:
476,169,8226,2,0,P|472:213|463:257,1,90,2|8,0:0|0:0,0:0:0:0:
388,342,8771,2,0,P|343:333|299:329,1,90,2|8,0:0|0:0,0:0:0:0:
186,339,9317,5,2,0:0:0:0:
77,368,9590,1,10,0:0:0:0:
77,368,9771,2,0,L|37:254,1,120,2|10,0:0|0:0,0:0:0:0:
122,180,10408,2,0,L|91:91,1,90,0|8,1:0|0:3,0:0:0:0:
194,47,10953,2,0,P|238:34|283:42,1,90,2|2,0:0|0:0,0:0:0:0:
244,136,11499,6,0,P|234:174|238:214,1,80.9999975280763,2|0,0:0|0:0,0:0:0:0:
325,266,12044,1,0,0:0:0:0:
419,229,12317,1,2,0:0:0:0:
442,130,12590,2,0,P|421:95|390:70,1,80.9999975280763,2|0,0:0|0:0,0:0:0:0:
294,35,13135,1,0,0:0:0:0:
194,47,13408,1,0,0:0:0:0:
107,99,13680,6,0,P|70:115|31:125,2,80.9999975280763,2|0|0,0:0|0:0|0:0,0:0:0:0:
194,47,14499,1,0,0:0:0:0:
223,143,14771,2,0,P|232:181|250:218,1,80.9999975280763,2|0,0:0|0:0,0:0:0:0:
348,246,15317,2,0,P|384:227|423:217,1,80.9999975280763,2|0,0:0|0:0,0:0:0:0:
496,147,15862,6,0,L|506:67,2,80.9999975280763,2|0|0,0:0|0:0|0:0,0:0:0:0:
422,217,16680,1,2,0:0:0:0:
348,287,16953,2,0,L|358:366,2,80.9999975280763,2|0|0,0:0|0:0|0:0,0:0:0:0:
265,227,17771,1,0,0:0:0:0:
174,271,18044,6,0,P|135:280|93:281,2,80.9999975280763,2|0|0,0:0|0:0|0:0,0:0:0:0:
265,227,18862,1,0,0:0:0:0:
313,138,19135,2,0,L|323:57,1,80.9999975280763,2|0,0:0|0:0,0:0:0:0:
223,38,19680,2,0,L|212:118,1,80.9999975280763,2|0,0:0|0:0,0:0:0:0:
135,185,20226,6,0,L|145:265,1,80.9999975280763,2|0,0:0|0:0,0:0:0:0:
163,365,20771,1,0,0:0:0:0:
255,324,21044,1,2,0:0:0:0:
354,343,21317,2,0,P|391:352|435:353,1,80.9999975280763,2|0,0:0|0:0,0:0:0:0:
506,282,21862,1,0,0:0:0:0:
454,194,22135,1,2,0:0:0:0:
402,106,22408,6,0,L|412:25,2,80.9999975280763,2|0|2,0:0|0:0|0:0,0:0:0:0:
316,160,23226,1,0,0:0:0:0:
218,132,23499,2,0,P|179:122|138:121,1,80.9999975280763,2|2,0:0|0:0,0:0:0:0:
45,160,24044,2,0,P|14:233|45:304,1,161.999995056153,2|2,0:0|0:0,0:0:0:0:
66,330,26771,6,0,P|106:349|153:349,1,90,6|8,0:0|0:0,0:0:0:0:
261,324,27317,2,0,P|301:305|346:305,1,90,2|8,0:0|0:0,0:0:0:0:
415,332,27771,1,2,0:0:0:0:
422,295,27862,2,0,P|430:250|446:205,1,90,2|8,0:0|0:0,0:0:0:0:
499,109,28408,2,0,P|491:64|475:19,1,90,2|8,0:0|0:0,0:0:0:0:
403,3,28862,1,2,0:0:0:0:
370,21,28953,6,0,P|330:39|283:39,1,90,2|8,0:0|0:0,0:0:0:0:
173,20,29499,2,0,P|128:20|87:38,1,90,2|8,0:0|0:0,0:0:0:0:
151,130,30044,2,0,B|172:217,1,90,8|8,0:0|0:0,0:0:0:0:
242,243,30499,1,8,0:0:0:0:
235,279,30590,2,0,B|214:366,1,90,2|2,0:0|0:0,0:0:0:0:
112,360,31135,6,0,P|70:359|34:339,1,80.9999975280763,6|8,0:0|0:0,0:0:0:0:
100,262,31680,2,0,P|106:223|120:184,1,80.9999975280763,2|8,0:0|0:0,0:0:0:0:
70,95,32226,2,0,P|55:58|32:23,2,80.9999975280763,2|8|2,0:0|0:0|0:0,0:0:0:0:
119,184,33044,2,0,P|158:196|200:184,1,80.9999975280763,8|2,0:0|0:0,0:0:0:0:
281,131,33590,5,8,0:0:0:0:
365,186,33862,2,0,L|372:268,1,80.9999975280763,2|8,0:0|0:0,0:0:0:0:
473,261,34408,2,0,L|465:180,1,80.9999975280763,2|8,0:0|0:0,0:0:0:0:
411,94,34953,2,0,P|447:78|488:82,2,80.9999975280763,2|8|2,0:0|0:0|0:0,0:0:0:0:
365,186,35771,6,0,L|373:267,1,80.9999975280763,8|2,0:0|0:0,0:0:0:0:
294,331,36317,1,8,0:0:0:0:
193,340,36590,2,0,P|154:338|116:357,2,80.9999975280763,2|8|2,0:0|0:0|0:0,0:0:0:0:
294,331,37408,1,8,0:0:0:0:
236,247,37680,6,0,L|231:166,1,80.9999975280763,2|8,0:0|0:0,0:0:0:0:
303,94,38226,2,0,L|308:13,1,80.9999975280763,2|8,0:0|0:0,0:0:0:0:
409,13,38771,2,0,P|448:25|490:22,2,80.9999975280763,2|8|2,0:0|0:0|0:0,0:0:0:0:
307,13,39590,1,8,0:0:0:0:
224,70,39862,6,0,P|185:82|143:79,1,80.9999975280763,6|8,0:0|0:0,0:0:0:0:
51,41,40408,2,0,L|51:125,1,80.9999975280763,2|8,0:0|0:0,0:0:0:0:
4,212,40953,2,0,P|-5:253|4:292,2,80.9999975280763,2|8|2,0:0|0:0|0:0,0:0:0:0:
97,251,41771,1,8,0:0:0:0:
189,292,42044,6,0,P|197:252|188:213,1,80.9999975280763,2|8,0:0|0:0,0:0:0:0:
141,122,42590,2,0,P|132:82|141:43,1,80.9999975280763,2|8,0:0|0:0,0:0:0:0:
237,14,43135,2,0,B|252:16|277:13|277:13|300:25|316:28,1,80.9999975280763,2|10,0:0|0:0,0:0:0:0:
399,82,43680,1,2,0:0:0:0:
492,43,43953,1,8,0:0:0:0:
480,143,44226,6,0,P|489:182|480:221,1,80.9999975280763,6|8,0:0|0:0,0:0:0:0:
389,266,44771,2,0,P|348:267|312:285,1,80.9999975280763,2|8,0:0|0:0,0:0:0:0:
220,327,45317,1,2,0:0:0:0:
128,369,45590,2,0,L|47:351,2,80.9999975280763,8|2|8,0:0|0:0|0:0,0:0:0:0:
220,327,46408,5,6,0:0:0:0:
168,239,46680,1,8,0:0:0:0:
116,151,46953,2,0,L|134:70,1,80.9999975280763,2|8,0:0|0:0,0:0:0:0:
221,20,47499,1,2,0:0:0:0:
313,59,47771,2,0,P|352:68|392:66,2,80.9999975280763,8|2|8,0:0|0:0|0:0,0:0:0:0:
227,132,48590,6,0,L|246:220,1,90,6|8,0:0|0:0,0:0:0:0:
154,285,49135,2,0,L|134:373,1,90,2|8,0:0|0:0,0:0:0:0:
33,321,49680,2,0,P|19:277|13:232,2,90,2|10|2,0:0|0:0|0:0,0:0:0:0:
134,372,50499,1,10,0:0:0:0:
242,345,50771,6,0,P|285:331|330:325,1,90,2|2,0:0|0:0,0:0:0:0:
403,309,51226,1,2,0:0:0:0:
427,280,51317,2,0,P|445:239|443:195,1,90,2|2,0:0|0:0,0:0:0:0:
349,140,51850,2,0,P|304:133|261:120,1,90,2|4,0:0|0:3,0:0:0:0:
158,73,52395,1,8,0:0:0:0:
141,297,52940,6,0,P|143:341|125:382,1,90,6|8,0:0|0:0,0:0:0:0:
29,321,53486,2,0,P|26:276|44:235,1,90,2|8,0:0|0:0,0:0:0:0:
144,185,54031,2,0,L|235:202,1,90,2|8,0:0|0:0,0:0:0:0:
322,270,54577,2,0,P|343:230|343:182,1,90,2|8,0:0|0:0,0:0:0:0:
385,81,55122,6,0,L|473:64,2,90,2|8|2,0:0|0:0|0:0,0:0:0:0:
273,96,55940,1,8,0:0:0:0:
176,37,56213,1,2,0:0:0:0:
66,63,56486,1,8,0:0:0:0:
16,163,56759,2,0,P|18:208|44:249,1,90,2|8,0:0|0:0,0:0:0:0:
127,173,57304,6,0,P|165:150|209:148,2,90,2|8|2,0:0|0:0|0:0,0:0:0:0:
197,260,58122,1,8,0:0:0:0:
127,348,58395,2,0,P|165:370|209:372,1,90,2|8,0:0|0:0,0:0:0:0:
281,347,58850,1,2,0:0:0:0:
315,332,58940,2,0,P|358:319|402:322,1,90,2|8,0:0|0:0,0:0:0:0:
479,239,59486,6,0,L|498:149,1,90,6|8,0:0|0:0,0:0:0:0:
386,134,60031,2,0,L|367:44,2,90,2|8|2,0:0|0:0|0:0,0:0:0:0:
367,245,60850,1,8,0:0:0:0:
254,238,61122,2,0,P|209:234|166:247,1,90,2|8,0:0|0:0,0:0:0:0:
92,332,61668,6,0,B|70:344|70:344|39:333|7:344,2,90,6|8|2,0:0|0:0|0:0,0:0:0:0:
166,246,62486,1,8,0:0:0:0:
76,177,62759,2,0,P|65:132|76:90,1,90,2|8,0:0|0:0,0:0:0:0:
166,23,63304,1,2,0:0:0:0:
348,157,63850,6,0,L|437:146,1,90,6|8,0:0|0:0,0:0:0:0:
449,257,64395,2,0,L|360:268,1,90,2|8,0:0|0:0,0:0:0:0:
256,222,64940,2,0,B|211:216|211:216|175:243,1,90,2|8,0:0|0:0,0:0:0:0:
98,325,65486,1,2,0:0:0:0:
23,237,65759,1,8,0:0:0:0:
37,125,66031,6,0,P|33:81|18:38,2,90,6|8|2,0:0|0:0|0:0,0:0:0:0:
23,237,66850,1,8,0:0:0:0:
113,303,67122,1,2,0:0:0:0:
204,237,67395,1,8,0:0:0:0:
294,303,67668,2,0,P|336:317|380:322,1,90,2|8,0:0|0:0,0:0:0:0:
484,276,68213,6,0,P|495:319|484:365,2,90,2|8|2,0:0|0:0|0:0,0:0:0:0:
492,163,69031,1,8,0:0:0:0:
426,71,69304,2,0,P|381:73|337:84,1,90,2|8,0:0|0:0,0:0:0:0:
272,122,69759,1,0,0:0:0:0:
236,111,69850,2,0,P|192:100|147:97,1,90,2|8,0:0|0:0,0:0:0:0:
47,148,70395,6,0,L|23:61,2,90,6|8|2,0:0|0:0|0:0,0:0:0:0:
35,259,71213,1,8,0:0:0:0:
121,330,71486,1,2,0:0:0:0:
210,261,71759,2,0,P|254:250|299:247,1,90,8|2,0:0|0:0,0:0:0:0:
410,252,72304,1,8,0:0:0:0:
482,165,72577,5,6,0:0:0:0:
256,192,72713,12,8,74213,0:3:0:0:
256,192,74759,6,0,L|164:204,2,90,6|8|2,0:0|0:0|0:0,0:0:0:0:
367,207,75577,1,8,0:0:0:0:
442,123,75850,2,0,P|453:80|442:33,2,90,2|8|2,0:0|0:0|0:0,0:0:0:0:
367,207,76668,1,8,0:0:0:0:
299,296,76940,6,0,P|289:339|300:382,2,90,2|8|2,0:0|0:0|0:0,0:0:0:0:
256,192,77759,1,8,0:0:0:0:
295,87,78031,1,2,0:0:0:0:
202,22,78304,2,0,P|158:12|115:23,1,90,8|2,0:0|0:0,0:0:0:0:
22,87,78850,1,8,0:0:0:0:
58,193,79122,6,0,P|59:240|77:284,1,90,6|8,0:0|0:0,0:0:0:0:
145,367,79668,1,2,0:0:0:0:
230,293,79940,1,8,0:0:0:0:
203,183,80213,2,0,P|204:136|222:92,1,90,2|8,0:0|0:0,0:0:0:0:
301,18,80759,1,2,0:0:0:0:
401,67,81031,1,8,0:0:0:0:
370,175,81304,6,0,P|371:222|389:266,2,90,2|8|2,0:0|0:0|0:0,0:0:0:0:
401,67,82122,1,8,0:0:0:0:
301,18,82395,2,0,P|259:33|214:34,1,90,2|10,0:0|0:0,0:0:0:0:
139,43,82850,1,10,0:0:0:0:
120,75,82940,2,0,L|138:172,1,90,2|10,0:0|0:0,0:0:0:0:
160,273,83486,5,6,0:0:0:0:
256,192,83622,12,2,85077,0:0:0:0:
378,93,85668,6,0,L|470:103,2,90,10|10|10,0:0|0:0|0:0,0:0:0:0:
287,26,86486,1,10,0:0:0:0:
136,327,87304,5,12,0:0:0:0:
