osu file format v14

[General]
AudioFilename: Morning Glory.mp3
AudioLeadIn: 0
PreviewTime: 52350
Countdown: 0
SampleSet: Soft
StackLeniency: 0.7
Mode: 0
LetterboxInBreaks: 0
WidescreenStoryboard: 0

[Editor]
DistanceSpacing: 1.7
BeatDivisor: 3
GridSize: 4
TimelineZoom: 3.099999

[Metadata]
Title:Morning Glory
TitleUnicode:Morning Glory
Artist:(K)NoW_NAME
ArtistUnicode:(K)NoW_NAME
Creator:kunka
Version:Insane
Source:サクラクエスト
Tags:sakura quest opening tv size kunkakunkakunkakunka know name
BeatmapID:1267184
BeatmapSetID:596015

[Difficulty]
HPDrainRate:6
CircleSize:4
OverallDifficulty:8
ApproachRate:9
SliderMultiplier:1.3
SliderTickRate:1

[Events]
//Background and Video events
Video,0,"Morning Glory.avi"
0,0,"BG.jpg",0,0
//Break Periods
//Storyboard Layer 0 (Background)
//Storyboard Layer 1 (Fail)
//Storyboard Layer 2 (Pass)
//Storyboard Layer 3 (Foreground)
//Storyboard Sound Samples

[TimingPoints]
590,272.727272727273,4,2,1,5,1,0
1135,-100,4,2,1,20,0,0
1680,-100,4,2,1,35,0,0
2226,-100,4,2,1,50,0,0
2499,-100,4,2,1,5,0,0
2771,-100,4,2,1,65,0,0
9317,-100,4,2,2,65,0,0
9862,-100,4,2,1,65,0,0
10044,-100,4,2,2,65,0,0
11499,-125,4,2,3,45,0,0
26771,-100,4,2,4,65,0,0
31135,-111.111111111111,4,2,1,50,0,0
39317,-111.111111111111,4,2,4,50,0,0
39862,-111.111111111111,4,2,1,50,0,0
44226,-111.111111111111,4,2,1,55,0,0
48590,-100,4,2,1,60,0,0
51850,272.727272727273,4,2,4,60,1,0
52395,-111.111111111111,4,2,4,60,0,0
52850,-111.111111111111,4,2,1,5,0,0
52940,-90.9090909090909,4,2,4,65,0,1
58940,-90.9090909090909,4,2,3,65,0,1
59122,-90.9090909090909,4,2,4,65,0,1
63304,-90.9090909090909,4,2,3,65,0,1
63395,-90.9090909090909,4,2,4,65,0,1
72577,-90.9090909090909,4,2,1,65,0,0
73122,-90.9090909090909,4,2,1,55,0,0
73668,-90.9090909090909,4,2,1,45,0,0
73940,-90.9090909090909,4,2,1,5,0,0
74213,-111.111111111111,4,2,1,55,0,0
74668,-111.111111111111,4,2,1,5,0,0
74759,-90.9090909090909,4,2,1,65,0,1
79122,-86.9565217391304,4,2,1,75,0,1
83486,-100,4,2,4,55,0,0
85077,-90.9090909090909,4,2,4,65,0,0
85668,-100,4,2,3,65,0,0

[Colours]
Combo1 : 255,128,255
Combo2 : 128,255,128
Combo3 : 128,255,255
Combo4 : 255,128,128
Combo5 : 255,255,128

[HitObjects]
256,192,590,12,0,2499,0:0:0:0:
256,192,2771,5,6,0:0:0:0:
397,233,2953,1,0,0:0:0:0:
422,192,3044,2,0,P|433:151|422:110,1,86.6666666666667,8|0,0:0|0:0,0:0:0:0:
375,50,3317,2,0,L|289:64,1,86.6666666666667
218,39,3590,1,2,0:0:0:0:
96,223,3862,5,2,0:0:0:0:
32,89,4044,1,0,0:0:0:0:
62,58,4135,2,0,P|102:46|144:58,1,86.6666666666667,8|0,0:0|0:0,0:0:0:0:
194,113,4408,2,0,L|186:203,1,86.6666666666667
96,300,4680,2,0,P|110:334|127:357,1,65,6|0,0:0|0:0,0:0:0:0:
292,361,4953,6,0,P|333:347|379:342,1,86.6666666666667,6|0,0:0|0:0,0:0:0:0:
450,348,5226,2,0,L|470:261,1,86.6666666666667,8|0,0:0|0:0,0:0:0:0:
447,192,5499,1,0,0:0:0:0:
288,38,5771,1,8,0:0:0:0:
186,199,5953,1,0,0:0:0:0:
150,224,6044,6,0,P|109:235|68:224,1,86.6666666666667,6|0,0:0|0:0,0:0:0:0:
0,189,6317,1,8,0:0:0:0:
297,157,6590,2,0,P|337:145|379:157,1,86.6666666666667,6|0,0:0|0:0,0:0:0:0:
447,192,6862,1,8,0:0:0:0:
206,334,7135,6,0,B|189:308|189:308|198:253,1,86.6666666666667,6|0,0:0|0:0,0:0:0:0:
219,181,7408,1,8,0:0:0:0:
364,203,7590,1,0,0:0:0:0:
382,164,7680,2,0,L|366:77,1,86.6666666666667,2|0,0:0|0:0,0:0:0:0:
328,15,7953,1,8,0:0:0:0:
195,79,8135,1,0,0:0:0:0:
156,98,8226,6,0,P|114:110|73:98,1,86.6666666666667,2|0,0:0|0:0,0:0:0:0:
8,61,8499,1,8,0:0:0:0:
20,207,8680,1,0,0:0:0:0:
2,246,8771,2,0,P|2:291|16:329,1,86.6666666666667,2|0,0:0|0:0,0:0:0:0:
84,358,9044,2,0,L|170:341,1,86.6666666666667,8|0,0:0|0:0,0:0:0:0:
243,349,9317,5,2,0:0:0:0:
220,128,9590,1,10,0:0:0:0:
347,55,9771,1,2,0:0:0:0:
390,59,9862,1,2,0:0:0:0:
472,182,10044,1,2,0:0:0:0:
490,221,10135,2,0,L|473:306,1,86.6666666666667,10|0,0:0|0:0,0:0:0:0:
350,173,10408,6,0,P|306:164|265:173,1,86.6666666666667,0|8,1:0|0:3,0:0:0:0:
197,203,10680,2,0,L|110:187,1,86.6666666666667,8|0,0:0|0:0,0:0:0:0:
43,159,10953,1,2,0:0:0:0:
31,130,11044,1,2,0:0:0:0:
32,100,11135,1,2,0:0:0:0:
43,73,11226,1,2,0:0:0:0:
65,51,11317,1,2,0:0:0:0:
93,40,11408,1,2,0:0:0:0:
123,40,11499,5,2,0:0:0:0:
222,70,11680,1,0,0:0:0:0:
245,95,11771,2,0,L|230:162,1,69.3333333333333
197,203,12044,2,0,L|212:270,1,69.3333333333333
252,304,12317,2,0,P|280:294|320:292,1,69.3333333333333,2|0,0:0|0:0,0:0:0:0:
371,301,12590,6,0,P|406:308|439:301,1,69.3333333333333,2|0,0:0|0:0,0:0:0:0:
474,264,12862,2,0,L|463:195,1,69.3333333333333
423,160,13135,2,0,L|434:91,1,69.3333333333333
406,46,13408,1,0,0:0:0:0:
256,82,13680,6,0,P|212:96|154:99,1,104,2|0,0:0|0:0,0:0:0:0:
15,29,14226,1,0,0:0:0:0:
4,184,14499,2,0,P|5:218|16:251,1,69.3333333333333
55,285,14771,6,0,P|106:295|153:273,1,104,2|0,0:0|0:0,0:0:0:0:
272,174,15317,2,0,P|324:163|371:185,1,104,2|0,0:0|0:0,0:0:0:0:
465,305,15862,5,2,0:0:0:0:
364,333,16044,1,0,0:0:0:0:
330,342,16135,2,0,L|261:331,1,69.3333333333333
212,349,16408,2,0,P|179:358|143:360,1,69.3333333333333
100,331,16680,2,0,L|84:261,1,69.3333333333333,2|0,0:0|0:0,0:0:0:0:
110,217,16953,6,0,P|143:208|179:206,1,69.3333333333333,2|0,0:0|0:0,0:0:0:0:
220,237,17226,2,0,L|288:228,1,69.3333333333333
327,192,17499,2,0,P|336:163|338:123,1,69.3333333333333
328,73,17771,1,0,0:0:0:0:
174,99,18044,6,0,P|158:148|155:201,1,104,2|0,0:0|0:0,0:0:0:0:
212,348,18590,1,0,0:0:0:0:
342,264,18862,2,0,L|412:271,1,69.3333333333333
454,240,19135,6,0,P|469:190|451:141,1,104,2|0,0:0|0:0,0:0:0:0:
320,59,19680,2,0,P|270:74|221:56,1,104,2|0,0:0|0:0,0:0:0:0:
72,12,20226,5,2,0:0:0:0:
156,143,20499,2,0,L|160:247,1,104
12,197,21044,2,0,L|9:126,1,69.3333333333333,2|0,0:0|0:0,0:0:0:0:
17,75,21317,5,2,0:0:0:0:
156,143,21590,1,0,0:0:0:0:
301,88,21862,1,0,0:0:0:0:
419,189,22135,2,0,L|436:258,1,69.3333333333333,2|0,0:0|0:0,0:0:0:0:
424,307,22408,6,0,P|386:342|334:347,1,104,2|0,0:0|0:0,0:0:0:0:
181,319,22953,2,0,P|131:304|82:322,1,104,2|0,0:0|0:0,0:0:0:0:
23,176,23499,5,2,0:0:0:0:
47,23,23771,1,2,0:0:0:0:
170,120,24044,1,2,0:0:0:0:
304,314,24453,6,0,L|294:350,2,34.6666666666667,2|0|0,0:0|0:0|0:0,0:0:0:0:
304,314,26771,6,0,P|264:299|220:302,1,86.6666666666667,6|0,0:0|0:0,0:0:0:0:
147,317,27044,1,8,0:0:0:0:
39,216,27226,1,0,0:0:0:0:
12,181,27317,2,0,P|17:136|28:95,1,86.6666666666667,2|0,0:0|0:0,0:0:0:0:
69,34,27590,1,8,0:0:0:0:
215,48,27771,1,2,0:0:0:0:
249,22,27862,6,0,P|291:13|333:22,1,86.6666666666667,2|0,0:0|0:0,0:0:0:0:
403,47,28135,1,8,0:0:0:0:
355,186,28317,1,0,0:0:0:0:
383,219,28408,2,0,P|391:264|396:307,1,86.6666666666667,2|0,0:0|0:0,0:0:0:0:
376,375,28680,1,8,0:0:0:0:
229,355,28862,1,2,0:0:0:0:
188,370,28953,6,0,P|146:379|104:370,1,86.6666666666667,2|0,0:0|0:0,0:0:0:0:
44,324,29226,2,0,L|49:237,1,86.6666666666667,8|0,0:0|0:0,0:0:0:0:
24,167,29499,1,2,0:0:0:0:
161,121,29680,1,2,0:0:0:0:
191,151,29771,2,0,L|278:146,1,86.6666666666667,8|0,0:0|0:0,0:0:0:0:
358,221,30044,6,0,P|400:230|442:221,1,86.6666666666667,8|0,0:0|0:0,0:0:0:0:
509,189,30317,1,8,0:0:0:0:
423,68,30499,1,8,0:0:0:0:
380,74,30590,1,2,0:0:0:0:
358,221,30771,1,2,0:0:0:0:
365,264,30862,2,0,L|381:353,1,86.6666666666667,2|0,0:0|0:0,0:0:0:0:
270,369,31135,6,0,P|212:357|154:359,1,116.999996429443,6|8,0:0|0:0,0:0:0:0:
59,289,31590,1,0,0:0:0:0:
50,251,31680,2,0,P|48:194|60:135,1,116.999996429443,2|8,0:0|0:0,0:0:0:0:
149,58,32135,1,0,0:0:0:0:
186,68,32226,6,0,P|244:79|302:77,1,116.999996429443,2|8,0:0|0:0,0:0:0:0:
232,238,32771,1,2,0:0:0:0:
375,339,33044,2,0,P|412:332|439:304,1,77.999997619629,8|0,0:0|0:0,0:0:0:0:
462,249,33317,6,0,L|446:173,1,77.999997619629,2|0,0:0|0:0,0:0:0:0:
463,115,33590,1,8,0:0:0:0:
311,29,33862,2,0,L|235:47,1,77.999997619629,2|0,0:0|0:0,0:0:0:0:
194,90,34135,2,0,L|118:72,1,77.999997619629,8|0,0:0|0:0,0:0:0:0:
74,112,34408,6,0,L|92:188,1,77.999997619629,2|0,0:0|0:0,0:0:0:0:
52,231,34680,2,0,L|34:307,1,77.999997619629,8|0,0:0|0:0,0:0:0:0:
69,354,34953,2,0,P|130:344|188:345,2,116.999996429443,2|8|2,0:0|0:0|0:0,0:0:0:0:
52,231,35680,1,0,0:0:0:0:
90,225,35771,6,0,P|130:218|168:219,1,77.999997619629,8|0,0:0|0:0,0:0:0:0:
223,201,36044,2,0,P|243:166|256:130,1,77.999997619629,2|0,0:0|0:0,0:0:0:0:
274,74,36317,1,8,0:0:0:0:
391,62,36499,1,0,0:0:0:0:
418,91,36590,6,0,P|439:143|425:201,1,116.999996429443,2|8,0:0|0:0,0:0:0:0:
333,274,37044,1,0,0:0:0:0:
362,300,37135,2,0,P|414:321|472:307,1,116.999996429443,2|8,0:0|0:0,0:0:0:0:
425,201,37590,1,0,0:0:0:0:
396,175,37680,6,0,P|344:154|286:168,1,116.999996429443,2|8,0:0|0:0,0:0:0:0:
122,104,38226,2,0,L|99:181,1,77.999997619629,2|0,0:0|0:0,0:0:0:0:
101,237,38499,1,8,0:0:0:0:
231,353,38771,6,0,P|288:336|345:324,1,116.999996429443,2|8,0:0|0:0,0:0:0:0:
400,157,39317,1,2,0:0:0:0:
301,94,39499,1,8,0:0:0:0:
263,81,39590,2,0,P|224:92|186:100,1,77.999997619629,8|2,0:0|0:0,0:0:0:0:
136,202,39862,6,0,P|140:268|117:313,1,116.999996429443,6|8,0:0|0:0,0:0:0:0:
25,239,40317,1,0,0:0:0:0:
7,204,40408,2,0,P|3:138|26:93,1,116.999996429443,2|8,0:0|0:0,0:0:0:0:
136,57,40862,1,0,0:0:0:0:
168,78,40953,6,0,P|220:102|278:96,1,116.999996429443,2|8,0:0|0:0,0:0:0:0:
442,33,41499,1,2,0:0:0:0:
415,206,41771,2,0,P|424:246|428:283,1,77.999997619629,8|0,0:0|0:0,0:0:0:0:
404,337,42044,5,2,0:0:0:0:
289,310,42226,1,0,0:0:0:0:
250,304,42317,2,0,P|212:307|173:316,1,77.999997619629,8|0,0:0|0:0,0:0:0:0:
117,336,42590,2,0,P|113:379|89:339,1,116.999996429443,2|8,0:0|0:0,0:0:0:0:
97,223,43044,1,0,0:0:0:0:
113,187,43135,6,0,L|99:110,1,77.999997619629,2|0,0:0|0:0,0:0:0:0:
110,52,43408,2,0,P|143:30|182:30,1,77.999997619629,10|0,0:0|0:0,0:0:0:0:
236,49,43680,1,2,0:0:0:0:
352,57,43862,1,8,0:3:0:0:
324,84,43953,2,0,L|310:161,1,77.999997619629,8|0,0:0|0:0,0:0:0:0:
339,275,44226,5,6,0:0:0:0:
498,175,44499,2,0,L|484:98,1,77.999997619629,8|0,0:0|0:0,0:0:0:0:
432,63,44771,2,0,P|368:59|320:87,1,116.999996429443,2|8,0:0|0:0,0:0:0:0:
276,200,45226,1,0,0:0:0:0:
308,221,45317,6,0,L|322:298,1,77.999997619629,2|0,0:0|0:0,0:0:0:0:
290,352,45590,2,0,P|241:382|184:373,1,116.999996429443,8|2,0:0|0:0,0:0:0:0:
66,333,46044,1,0,0:0:0:0:
47,298,46135,2,0,L|61:221,1,77.999997619629,8|0,0:0|0:0,0:0:0:0:
38,107,46408,5,6,0:0:0:0:
210,35,46680,2,0,P|248:35|286:50,1,77.999997619629,8|0,0:0|0:0,0:0:0:0:
307,109,46953,2,0,P|292:165|308:221,1,116.999996429443,2|8,0:0|0:0,0:0:0:0:
463,325,47499,6,0,P|463:287|448:249,1,77.999997619629,2|0,0:0|0:0,0:0:0:0:
421,194,47771,2,0,L|305:220,1,116.999996429443,8|2,0:0|0:0,0:0:0:0:
142,127,48317,1,8,0:0:0:0:
10,348,48590,6,0,P|1:304|11:265,1,86.6666666666667,6|0,0:0|0:0,0:0:0:0:
52,203,48862,1,8,0:0:0:0:
272,235,49135,2,0,P|314:239|358:229,1,86.6666666666667,2|0,0:0|0:0,0:0:0:0:
421,194,49408,1,8,0:0:0:0:
226,108,49680,6,0,L|140:127,1,86.6666666666667,2|0,0:0|0:0,0:0:0:0:
123,54,49953,2,0,L|207:35,1,86.6666666666667,10|0,0:0|0:0,0:0:0:0:
280,50,50226,2,0,P|302:88|301:132,1,86.6666666666667,2|0,0:0|0:0,0:0:0:0:
249,182,50499,2,0,L|272:268,1,86.6666666666667,10|0,0:0|0:0,0:0:0:0:
390,275,50771,6,0,P|411:265|437:264,2,43.3333333333333,2|2|2,0:0|0:0|0:0,0:0:0:0:
349,363,51044,2,0,P|328:373|302:375,2,43.3333333333333,2|2|2,0:0|0:0|0:0,0:0:0:0:
298,283,51317,5,2,0:0:0:0:
271,265,51408,1,2,0:0:0:0:
241,252,51499,1,2,0:0:0:0:
209,245,51590,1,2,0:0:0:0:
177,243,51680,1,2,0:0:0:0:
145,246,51771,1,2,0:0:0:0:
113,255,51850,5,2,0:0:0:0:
280,50,52122,1,4,0:3:0:0:
280,50,52395,2,0,P|353:25|326:103,1,194.999994049072,8|0,0:0|0:0,0:0:0:0:
192,117,52940,6,0,P|143:107|100:117,1,95.3333362426759,6|0,0:0|0:0,0:0:0:0:
43,177,53213,2,0,L|43:273,1,95.3333362426759,8|0,0:0|0:0,0:0:0:0:
100,330,53486,2,0,P|149:340|191:330,1,95.3333362426759,2|0,0:0|0:0,0:0:0:0:
268,298,53759,2,0,P|314:287|360:297,1,95.3333362426759,8|0,0:0|0:0,0:0:0:0:
429,339,54031,6,0,L|411:246,1,95.3333362426759,2|0,0:0|0:0,0:0:0:0:
419,164,54304,1,8,0:0:0:0:
260,200,54486,1,2,0:0:0:0:
224,231,54577,2,0,L|126:239,1,95.3333362426759,2|2,0:0|0:0,0:0:0:0:
48,225,54850,2,0,P|33:177|39:133,1,95.3333362426759,8|0,0:0|0:0,0:0:0:0:
107,87,55122,6,0,L|202:79,1,95.3333362426759,2|0,0:0|0:0,0:0:0:0:
280,102,55395,2,0,P|323:115|370:102,1,95.3333362426759,8|0,0:0|0:0,0:0:0:0:
443,65,55668,1,2,0:0:0:0:
233,187,55940,2,0,P|247:232|258:282,1,95.3333362426759,8|0,0:0|0:0,0:0:0:0:
295,351,56213,6,0,P|338:364|385:351,1,95.3333362426759,2|0,0:0|0:0,0:0:0:0:
467,343,56486,1,8,0:0:0:0:
392,199,56668,1,2,0:0:0:0:
410,155,56759,2,0,P|423:112|410:65,1,95.3333362426759,2|0,0:0|0:0,0:0:0:0:
333,38,57031,2,0,P|284:41|239:54,1,95.3333362426759,8|0,0:0|0:0,0:0:0:0:
166,89,57304,6,0,P|117:99|74:89,1,95.3333362426759,2|0,0:0|0:0,0:0:0:0:
7,40,57577,1,8,0:0:0:0:
37,199,57759,1,0,0:0:0:0:
27,245,57850,2,0,P|34:294|58:330,1,95.3333362426759,2|0,0:0|0:0,0:0:0:0:
137,352,58122,2,0,L|231:340,1,95.3333362426759,8|0,0:0|0:0,0:0:0:0:
295,288,58395,6,0,P|305:239|295:196,1,95.3333362426759,2|0,0:0|0:0,0:0:0:0:
263,119,58668,1,8,0:0:0:0:
105,154,58850,1,2,0:0:0:0:
84,197,58940,2,0,P|74:246|84:288,1,95.3333362426759,2|2,0:0|0:0,0:0:0:0:
137,352,59213,1,8,0:0:0:0:
143,34,59486,6,0,P|193:37|236:48,1,95.3333362426759,6|0,0:0|0:0,0:0:0:0:
316,65,59759,2,0,P|366:62|409:51,1,95.3333362426759,8|0,0:0|0:0,0:0:0:0:
473,101,60031,2,0,P|470:151|459:194,1,95.3333362426759,2|0,0:0|0:0,0:0:0:0:
434,272,60304,1,8,0:0:0:0:
321,152,60486,1,0,0:0:0:0:
279,128,60577,6,0,P|231:126|182:128,1,95.3333362426759,2|0,0:0|0:0,0:0:0:0:
102,121,60850,1,8,0:0:0:0:
104,282,61031,1,0,0:0:0:0:
119,327,61122,2,0,P|123:350|119:376,2,47.6666681213379,2|2|2,0:0|0:0|0:0,0:0:0:0:
32,307,61395,2,0,P|28:284|32:258,2,47.6666681213379,8|2|2,0:0|0:0|0:0,0:0:0:0:
181,281,61668,6,0,P|227:270|273:280,1,95.3333362426759,6|0,0:0|0:0,0:0:0:0:
346,316,61940,1,8,0:0:0:0:
489,240,62122,1,2,0:0:0:0:
470,195,62213,2,0,L|487:96,1,95.3333362426759,2|0,0:0|0:0,0:0:0:0:
445,30,62486,1,8,0:0:0:0:
202,49,62759,6,0,B|176:37|163:20|163:20|144:30|116:29,1,95.3333362426759,2|0,0:0|0:0,0:0:0:0:
37,28,63031,1,8,0:0:0:0:
57,269,63304,1,2,0:0:0:0:
59,304,63395,1,2,0:0:0:0:
74,336,63486,1,2,0:0:0:0:
100,360,63577,1,2,0:0:0:0:
134,373,63668,1,2,0:0:0:0:
169,373,63759,1,2,0:0:0:0:
202,360,63850,6,0,P|244:341|294:342,1,95.3333362426759,6|0,0:0|0:0,0:0:0:0:
373,341,64122,2,0,P|374:291|394:251,1,95.3333362426759,8|0,0:0|0:0,0:0:0:0:
447,189,64395,2,0,P|446:139|426:99,1,95.3333362426759,2|0,0:0|0:0,0:0:0:0:
391,24,64668,1,8,0:0:0:0:
214,189,64940,6,0,P|191:193|165:189,2,47.6666681213379,2|2|2,0:0|0:0|0:0,0:0:0:0:
190,94,65213,2,0,P|190:70|200:46,2,47.6666681213379,8|2|2,0:0|0:0|0:0,0:0:0:0:
282,98,65486,1,2,0:0:0:0:
313,113,65577,1,2,0:0:0:0:
336,141,65668,1,2,0:0:0:0:
345,175,65759,1,8,0:0:0:0:
339,210,65850,1,2,0:0:0:0:
319,239,65940,1,2,0:0:0:0:
288,257,66031,6,0,B|270:353,1,95.3333362426759,6|0,0:0|0:0,0:0:0:0:
190,334,66304,2,0,B|207:240,1,95.3333362426759,8|0,0:0|0:0,0:0:0:0:
261,179,66577,1,2,0:0:0:0:
50,56,66850,2,0,L|29:151,1,95.3333362426759,8|0,0:0|0:0,0:0:0:0:
95,196,67122,6,0,L|116:291,1,95.3333362426759,2|0,0:0|0:0,0:0:0:0:
62,351,67395,1,8,0:0:0:0:
16,195,67577,1,2,0:0:0:0:
29,149,67668,2,0,P|65:121|115:117,1,95.3333362426759,2|2,0:0|0:0,0:0:0:0:
189,147,67940,2,0,P|232:161|284:153,1,95.3333362426759,8|0,0:0|0:0,0:0:0:0:
412,218,68213,6,0,P|365:211|320:225,1,95.3333362426759,2|0,0:0|0:0,0:0:0:0:
260,281,68486,1,8,0:0:0:0:
110,216,68668,1,2,0:0:0:0:
76,182,68759,2,0,L|60:87,1,95.3333362426759,2|0,0:0|0:0,0:0:0:0:
125,40,69031,2,0,L|222:56,1,95.3333362426759,8|0,0:0|0:0,0:0:0:0:
334,142,69304,6,0,P|347:188|334:242,1,95.3333362426759,2|0,0:0|0:0,0:0:0:0:
316,312,69577,1,8,0:0:0:0:
159,271,69759,1,0,0:0:0:0:
139,314,69850,2,0,P|140:337|149:360,2,47.6666681213379,2|2|2,0:0|0:0|0:0,0:0:0:0:
221,321,70122,2,0,L|316:311,1,95.3333362426759,8|2,0:0|0:0,0:0:0:0:
258,190,70395,6,0,L|163:200,1,95.3333362426759,6|0,0:0|0:0,0:0:0:0:
96,152,70668,1,8,0:0:0:0:
211,37,70850,1,2,0:0:0:0:
252,60,70940,2,0,P|297:73|348:60,1,95.3333362426759,2|0,0:0|0:0,0:0:0:0:
420,37,71213,1,8,0:0:0:0:
387,195,71395,1,8,0:0:0:0:
397,242,71486,6,0,L|416:338,1,95.3333362426759,2|0,0:0|0:0,0:0:0:0:
489,299,71759,2,0,L|470:205,1,95.3333362426759,8|2,0:0|0:0,0:0:0:0:
434,132,72031,2,0,P|388:117|343:130,1,95.3333362426759,2|2,0:0|0:0,0:0:0:0:
269,163,72304,2,0,P|223:178|178:165,1,95.3333362426759,8|2,0:0|0:0,0:0:0:0:
57,105,72577,5,6,0:0:0:0:
256,192,72668,12,0,73940,0:0:0:0:
260,112,74213,6,0,P|309:50|330:127,1,194.999994049072,8|0,0:3|0:0,0:0:0:0:
268,241,74759,6,0,P|270:291|289:334,1,95.3333362426759,6|0,0:0|0:0,0:0:0:0:
353,380,75031,1,8,0:0:0:0:
452,251,75213,1,2,0:0:0:0:
440,204,75304,2,0,P|442:155|460:113,1,95.3333362426759,2|0,0:0|0:0,0:0:0:0:
506,45,75577,1,8,0:0:0:0:
344,21,75759,1,2,0:0:0:0:
312,56,75850,6,0,L|216:65,1,95.3333362426759,2|0,0:0|0:0,0:0:0:0:
138,43,76122,1,8,0:0:0:0:
198,193,76304,1,2,0:0:0:0:
213,238,76395,2,0,P|210:288|191:330,1,95.3333362426759,2|0,0:0|0:0,0:0:0:0:
120,367,76668,1,8,0:0:0:0:
11,246,76850,1,2,0:0:0:0:
23,200,76940,6,0,L|120:183,1,95.3333362426759,2|0,0:0|0:0,0:0:0:0:
198,193,77213,1,8,0:0:0:0:
316,82,77395,1,2,0:0:0:0:
347,46,77486,2,0,L|440:62,1,95.3333362426759,2|0,0:0|0:0,0:0:0:0:
504,114,77759,1,8,0:0:0:0:
426,256,77940,1,2,0:0:0:0:
381,239,78031,6,0,L|287:255,1,95.3333362426759,2|0,0:0|0:0,0:0:0:0:
212,220,78304,2,0,L|195:314,1,95.3333362426759,8|2,0:0|0:0,0:0:0:0:
113,307,78577,2,0,L|130:213,1,95.3333362426759,2|0,0:0|0:0,0:0:0:0:
172,143,78850,2,0,P|216:134|262:150,1,95.3333362426759,8|2,0:0|0:0,0:0:0:0:
381,239,79122,6,0,L|398:140,1,99.6666685676575,6|0,0:0|0:0,0:0:0:0:
447,70,79395,1,8,0:0:0:0:
288,10,79577,1,2,0:0:0:0:
247,38,79668,2,0,P|204:58|151:60,1,99.6666685676575,2|0,0:0|0:0,0:0:0:0:
67,47,79940,1,8,0:0:0:0:
31,211,80122,1,2,0:0:0:0:
69,242,80213,6,0,P|112:262|165:264,1,99.6666685676575,2|0,0:0|0:0,0:0:0:0:
247,245,80486,1,8,0:0:0:0:
380,140,80668,1,2,0:0:0:0:
425,160,80759,2,0,L|446:260,1,99.6666685676575,2|0,0:0|0:0,0:0:0:0:
464,340,81031,1,8,0:0:0:0:
294,342,81213,1,2,0:0:0:0:
250,365,81304,6,0,P|199:377|153:365,1,99.6666685676575,2|0,0:0|0:0,0:0:0:0:
71,341,81577,1,8,0:0:0:0:
163,199,81759,1,2,0:0:0:0:
181,152,81850,2,0,P|177:102|156:54,1,99.6666685676575,2|0,0:0|0:0,0:0:0:0:
85,11,82122,1,8,0:0:0:0:
71,341,82395,6,0,P|116:322|167:320,1,99.6666685676575,2|0,0:0|0:0,0:0:0:0:
249,341,82668,2,0,P|294:359|345:362,1,99.6666685676575,10|10,0:0|0:0,0:0:0:0:
429,353,82940,1,2,0:0:0:0:
381,191,83122,1,0,0:0:0:0:
338,164,83213,2,0,L|239:179,1,99.6666685676575,10|0,0:0|0:0,0:0:0:0:
126,229,83486,6,0,L|112:142,1,86.6666666666667,6|0,0:0|0:0,0:0:0:0:
67,84,83759,2,0,P|131:95|186:63,1,130,2|0,0:0|0:0,0:0:0:0:
294,44,84168,2,0,L|316:48,1,21.6666666666667,8|2,0:0|0:0,0:0:0:0:
351,78,84259,2,0,L|337:164,1,86.6666666666667,2|0,0:0|0:0,0:0:0:0:
381,222,84531,6,0,L|394:308,1,86.6666666666667,2|0,0:0|0:0,0:0:0:0:
468,299,84804,2,0,L|454:212,1,86.6666666666667,2|0,0:0|0:0,0:0:0:0:
337,163,85077,2,0,P|264:144|197:152,1,143.000004364014,8|0,0:0|0:0,0:0:0:0:
62,346,85668,6,0,L|39:262,1,86.6666666666667,10|0,0:0|0:0,0:0:0:0:
88,318,85940,2,0,L|65:234,1,86.6666666666667,10|0,0:0|0:0,0:0:0:0:
114,289,86213,2,0,L|91:205,1,86.6666666666667,10|0,0:0|0:0,0:0:0:0:
140,261,86486,2,0,L|117:177,1,86.6666666666667,10|0,0:0|0:0,0:0:0:0:
349,26,87304,5,12,0:0:0:0:
