osu file format v14

[General]
AudioFilename: Morning Glory.mp3
AudioLeadIn: 0
PreviewTime: 52350
Countdown: 0
SampleSet: Soft
StackLeniency: 0.7
Mode: 0
LetterboxInBreaks: 0
WidescreenStoryboard: 0

[Editor]
DistanceSpacing: 1
BeatDivisor: 2
GridSize: 4
TimelineZoom: 2.799999

[Metadata]
Title:Morning Glory
TitleUnicode:Morning Glory
Artist:(K)NoW_NAME
ArtistUnicode:(K)NoW_NAME
Creator:kunka
Version:Easy
Source:サクラクエスト
Tags:sakura quest opening tv size kunkakunkakunkakunka know name
BeatmapID:1277508
BeatmapSetID:596015

[Difficulty]
HPDrainRate:2
CircleSize:3
OverallDifficulty:3
ApproachRate:3
SliderMultiplier:0.8
SliderTickRate:1

[Events]
//Background and Video events
Video,0,"Morning Glory.avi"
0,0,"BG.jpg",0,0
//Break Periods
//Storyboard Layer 0 (Background)
//Storyboard Layer 1 (Fail)
//Storyboard Layer 2 (Pass)
//Storyboard Layer 3 (Foreground)
//Storyboard Sound Samples

[TimingPoints]
590,272.727272727273,4,2,1,5,1,0
2771,-100,4,2,1,65,0,0
9317,-100,4,2,2,65,0,0
11499,-100,4,2,3,45,0,0
26771,-100,4,2,4,65,0,0
31135,-100,4,2,1,50,0,0
39317,-100,4,2,4,50,0,0
39862,-100,4,2,1,50,0,0
44226,-100,4,2,1,55,0,0
48590,-100,4,2,1,60,0,0
51850,272.727272727273,4,2,4,60,1,0
52940,-100,4,2,4,65,0,1
58940,-100,4,2,3,65,0,1
59213,-100,4,2,4,65,0,1
63304,-100,4,2,3,65,0,1
63850,-100,4,2,4,65,0,1
72577,-100,4,2,1,65,0,0
74213,-100,4,2,1,55,0,0
74759,-100,4,2,1,65,0,1
79122,-100,4,2,1,75,0,1
83486,-100,4,2,1,55,0,0
85077,-100,4,2,1,65,0,0
85668,-100,4,2,3,65,0,0

[Colours]
Combo1 : 255,128,255
Combo2 : 128,255,128
Combo3 : 128,255,255
Combo4 : 255,128,128
Combo5 : 255,255,128

[HitObjects]
441,128,2771,6,0,B|458:207|458:207|432:281,1,160,6|0,0:0|0:0,0:0:0:0:
387,348,3590,1,2,0:0:0:0:
312,318,3862,2,0,P|236:297|161:331,1,160,2|0,0:0|0:0,0:0:0:0:
100,377,4680,1,6,0:0:0:0:
49,315,4953,6,0,B|23:241|23:241|40:162,1,160,6|0,0:0|0:0,0:0:0:0:
119,20,6044,2,0,B|149:37|197:22|197:22|209:72|239:89,1,160,6|6,0:0|0:0,0:0:0:0:
153,224,7135,6,0,P|225:254|300:233,1,160,6|2,0:0|0:0,0:0:0:0:
379,222,7953,1,8,0:0:0:0:
379,141,8226,2,0,B|361:110|376:62|376:62|326:50|309:20,2,160,2|2|2,0:0|0:0|0:0,0:0:0:0:
447,182,9590,6,0,P|444:267|380:301,1,160,10|10,0:0|0:0,0:0:0:0:
310,272,10408,2,0,P|273:257|233:258,1,80,0|8,1:0|0:0,0:0:0:0:
160,290,10953,2,0,P|128:304|83:303,1,80,2|2,0:0|0:0,0:0:0:0:
25,247,11499,6,0,B|25:168|25:168|104:143,1,160,2|0,0:0|0:0,0:0:0:0:
180,160,12317,1,2,0:0:0:0:
258,177,12590,2,0,B|334:197|334:197|377:129,1,160,2|0,0:0|0:0,0:0:0:0:
382,49,13408,1,0,0:0:0:0:
302,43,13680,6,0,P|226:66|146:63,1,160,2|0,0:0|0:0,0:0:0:0:
66,52,14499,1,0,0:0:0:0:
22,119,14771,2,0,P|19:198|42:274,1,160,2|2,0:0|0:0,0:0:0:0:
176,362,15862,6,0,B|247:323|247:323|232:245,1,160,2|0,0:0|0:0,0:0:0:0:
242,166,16680,1,2,0:0:0:0:
315,134,16953,2,0,B|391:113|391:113|434:181,1,160,2|0,0:0|0:0,0:0:0:0:
445,260,17771,1,0,0:0:0:0:
414,335,18044,6,0,P|338:358|258:355,1,160,2|0,0:0|0:0,0:0:0:0:
178,355,18862,1,0,0:0:0:0:
108,314,19135,2,0,B|89:277|89:277|100:237|100:237|113:198|113:198|94:164,1,160,2|2,0:0|0:0,0:0:0:0:
89,86,19953,1,0,0:0:0:0:
154,39,20226,6,0,B|230:23|230:23|270:93,1,160,2|0,0:0|0:0,0:0:0:0:
288,172,21044,1,2,0:0:0:0:
280,252,21317,2,0,B|261:327|261:327|329:370,1,160,2|0,0:0|0:0,0:0:0:0:
410,376,22135,1,2,0:0:0:0:
465,318,22408,6,0,B|465:283|503:250|503:250|466:214|467:180,1,160,2|2,0:0|0:0,0:0:0:0:
423,114,23226,1,0,0:0:0:0:
344,98,23499,2,0,P|303:106|271:130,1,80,2|2,0:0|0:0,0:0:0:0:
209,177,24044,2,0,P|134:201|59:177,1,160,2|2,0:0|0:0,0:0:0:0:
395,65,26771,6,0,P|420:140|442:220,1,160,6|2,0:0|0:0,0:0:0:0:
417,294,27590,1,8,0:0:0:0:
365,354,27862,2,0,P|290:377|215:353,1,160,2|2,0:0|0:0,0:0:0:0:
161,294,28680,1,8,0:0:0:0:
214,234,28953,6,0,P|288:210|363:234,1,160,2|2,0:0|0:0,0:0:0:0:
417,294,29771,1,8,0:0:0:0:
477,241,30044,2,0,P|497:207|497:167,1,80,8|8,0:0|0:0,0:0:0:0:
465,93,30590,2,0,P|428:79|402:48,1,80,2|2,0:0|0:0,0:0:0:0:
325,26,31135,6,0,B|246:16|246:16|165:40,1,160,6|2,0:0|0:0,0:0:0:0:
98,76,31953,1,8,0:0:0:0:
63,149,32226,2,0,L|80:309,1,160,2|2,0:0|0:0,0:0:0:0:
147,351,33044,1,8,0:0:0:0:
223,326,33317,6,0,B|254:334|298:307|298:307|321:352|355:361,2,160,2|2|2,0:0|0:0|0:0,0:0:0:0:
136,191,34953,1,2,0:0:0:0:
257,86,35499,6,0,B|333:62|333:62|413:86,1,160,2|2,0:0|0:0,0:0:0:0:
468,140,36317,1,8,0:0:0:0:
483,218,36590,2,0,P|472:295|418:353,1,160,2|2,0:0|0:0,0:0:0:0:
339,334,37408,1,8,0:0:0:0:
261,353,37680,6,0,B|221:369|181:353|181:353|141:337|104:352,2,160,2|2|2,0:0|0:0|0:0,0:0:0:0:
341,214,39317,2,0,L|358:134,1,80,2|8,0:0|0:0,0:0:0:0:
320,64,39862,6,0,P|245:41|169:64,1,160,6|2,0:0|0:0,0:0:0:0:
99,103,40680,1,8,0:0:0:0:
73,178,40953,2,0,L|102:337,1,160,2|2,0:0|0:0,0:0:0:0:
174,368,41771,1,8,0:0:0:0:
249,342,42044,6,0,B|283:333|306:288|306:288|350:315|381:307,1,160,2|2,0:0|0:0,0:0:0:0:
448,264,42862,1,8,0:0:0:0:
463,185,43135,2,0,L|472:105,1,80,2|10,0:0|0:0,0:0:0:0:
420,44,43680,2,0,P|381:38|341:52,1,80,2|8,0:0|0:0,0:0:0:0:
270,84,44226,5,6,0:0:0:0:
192,64,44499,1,8,0:0:0:0:
120,99,44771,2,0,L|128:267,1,160,2|2,0:0|0:0,0:0:0:0:
196,302,45590,2,0,P|128:340|60:305,1,160,8|8,0:0|0:0,0:0:0:0:
14,240,46408,5,6,0:0:0:0:
10,160,46680,1,8,0:0:0:0:
58,95,46953,2,0,P|139:95|218:87,1,160,2|2,0:0|0:0,0:0:0:0:
296,71,47771,2,0,P|374:61|444:98,1,160,8|8,0:0|0:0,0:0:0:0:
462,175,48590,6,0,B|463:254|463:254|422:325,1,160,6|2,0:0|0:0,0:0:0:0:
348,355,49408,1,8,0:0:0:0:
273,327,49680,2,0,P|193:318|113:319,1,160,2|2,0:0|0:0,0:0:0:0:
54,265,50499,1,10,0:0:0:0:
44,185,50771,6,0,P|36:144|25:106,1,80,2|2,0:0|0:0,0:0:0:0:
105,96,51317,2,0,P|115:134|122:173,1,80,2|2,0:0|0:0,0:0:0:0:
179,231,51850,2,0,P|172:270|161:309,2,80,2|4|8,0:0|0:3|0:0,0:0:0:0:
205,72,52940,6,0,P|243:61|282:53,1,80,6|8,0:0|0:0,0:0:0:0:
348,98,53486,2,0,P|387:100|427:107,1,80,2|8,0:0|0:0,0:0:0:0:
485,162,54031,2,0,P|499:240|471:314,1,160,2|2,0:0|0:0,0:0:0:0:
404,358,54850,1,8,0:0:0:0:
333,320,55122,6,0,B|293:304|253:320|253:320|213:336|176:321,1,160,2|2,0:0|0:0,0:0:0:0:
111,274,55940,1,8,0:0:0:0:
94,196,56213,2,0,P|59:172|24:153,1,80,2|8,0:0|0:0,0:0:0:0:
74,90,56759,2,0,P|107:109|140:132,1,80,2|8,0:0|0:0,0:0:0:0:
204,182,57304,6,0,B|241:201|241:201|281:190|281:190|320:177|356:195,1,160,2|2,0:0|0:0,0:0:0:0:
419,243,58122,1,8,0:0:0:0:
488,203,58395,2,0,P|512:128|489:52,1,160,2|2,0:0|0:0,0:0:0:0:
419,12,59213,1,8,0:0:0:0:
345,43,59486,6,0,L|266:38,1,80,6|8,0:0|0:0,0:0:0:0:
196,78,60031,2,0,P|158:95|115:95,1,80,2|8,0:0|0:0,0:0:0:0:
43,121,60577,2,0,P|20:196|44:271,1,160,2|2,0:0|0:0,0:0:0:0:
95,333,61395,1,8,0:0:0:0:
168,300,61668,6,0,B|208:284|248:300|248:300|288:316|325:301,1,160,6|2,0:0|0:0,0:0:0:0:
396,266,62486,1,8,0:0:0:0:
470,294,62759,2,0,L|487:373,2,80,2|8|2,0:0|0:0|0:0,0:0:0:0:
498,136,63850,6,0,P|460:125|421:117,1,80,6|8,0:0|0:0,0:0:0:0:
355,162,64395,2,0,P|316:164|276:171,1,80,2|8,0:0|0:0,0:0:0:0:
217,226,64940,2,0,P|145:258|68:245,1,160,2|2,0:0|0:0,0:0:0:0:
11,187,65759,1,8,0:0:0:0:
49,117,66031,6,0,P|121:85|198:98,1,160,6|2,0:0|0:0,0:0:0:0:
254,156,66850,1,8,0:0:0:0:
333,158,67122,2,0,P|372:159|411:168,1,80,2|8,0:0|0:0,0:0:0:0:
456,235,67668,2,0,P|456:275|446:314,1,80,2|8,0:0|0:0,0:0:0:0:
376,352,68213,6,0,P|297:338|217:335,1,160,2|2,0:0|0:0,0:0:0:0:
140,312,69031,1,8,0:0:0:0:
83,255,69304,2,0,P|59:180|82:104,1,160,2|2,0:0|0:0,0:0:0:0:
140,49,70122,1,8,0:0:0:0:
211,85,70395,6,0,P|286:109|362:86,1,160,6|2,0:0|0:0,0:0:0:0:
432,49,71213,1,8,0:0:0:0:
488,106,71486,2,0,P|499:144|507:183,1,80,2|8,0:0|0:0,0:0:0:0:
462,249,72031,2,0,P|460:288|453:328,1,80,2|8,0:0|0:0,0:0:0:0:
376,352,72577,5,6,0:0:0:0:
102,137,74213,1,8,0:3:0:0:
233,46,74759,6,0,P|308:22|384:45,1,160,6|2,0:0|0:0,0:0:0:0:
449,89,75577,1,8,0:0:0:0:
400,153,75850,2,0,P|391:232|387:317,1,160,2|2,0:0|0:0,0:0:0:0:
316,350,76668,1,8,0:0:0:0:
245,312,76940,6,0,P|166:303|81:299,1,160,2|2,0:0|0:0,0:0:0:0:
18,255,77759,1,8,0:0:0:0:
44,179,78031,1,2,0:0:0:0:
26,100,78304,2,0,L|6:21,2,80,8|2|8,0:0|0:0|0:0,0:0:0:0:
102,124,79122,6,0,P|181:115|266:111,1,160,6|2,0:0|0:0,0:0:0:0:
315,170,79940,1,8,0:0:0:0:
269,235,80213,2,0,P|189:238|109:247,1,160,2|2,0:0|0:0,0:0:0:0:
64,313,81031,1,8,0:0:0:0:
127,362,81304,6,0,P|206:353|286:350,1,160,2|2,0:0|0:0,0:0:0:0:
366,351,82122,1,8,0:0:0:0:
424,296,82395,2,0,P|415:257|402:219,1,80,2|10,0:0|0:0,0:0:0:0:
350,157,82940,2,0,P|312:169|273:178,1,80,2|10,0:0|0:0,0:0:0:0:
217,236,83486,6,0,P|49:173|217:120,1,466.666666666667,6|2,0:0|0:0,0:0:0:0:
366,210,85668,6,0,P|404:220|444:227,1,80,10|10,0:0|0:0,0:0:0:0:
455,149,86213,2,0,P|415:141|377:130,1,80,10|10,0:0|0:0,0:0:0:0:
143,179,87304,5,12,0:0:0:0:
