osu file format v11

[General]
AudioFilename: UNICORN.mp3
AudioLeadIn: 3000
PreviewTime: 41170
Countdown: 0
SampleSet: None
StackLeniency: 0.7
Mode: 0
LetterboxInBreaks: 1

[Editor]
Bookmarks: 1742,20027,42885,61171
DistanceSpacing: 0.4
BeatDivisor: 8
GridSize: 4

[Metadata]
Title:^)
TitleUnicode:^)
Artist:(^
ArtistUnicode:(^
Creator:Mercurius
Version:tortUC
Source:
Tags:
BeatmapID:219200
BeatmapSetID:77038

[Difficulty]
HPDrainRate:8
CircleSize:4
OverallDifficulty:7
ApproachRate:9
SliderMultiplier:1.4
SliderTickRate:1

[Events]
//Background and Video events
0,0,"bg.jpg"
//Break Periods
//Storyboard Layer 0 (Background)
//Storyboard Layer 1 (Fail)
//Storyboard Layer 2 (Pass)
//Storyboard Layer 3 (Foreground)
//Storyboard Sound Samples
//Background Colour Transformations
3,100,163,162,255

[TimingPoints]
1742,571.428571428571,4,2,0,80,1,0
17813,-100,4,2,0,70,0,0
17956,-100,4,2,0,60,0,0
18170,-100,4,2,0,50,0,0
18384,-100,4,2,0,40,0,0
18599,-100,4,2,0,30,0,0
18813,-100,4,2,0,20,0,0
19170,-100,4,2,0,10,0,0
19527,-100,4,2,0,5,0,0
19670,-100,4,2,0,80,0,0
41741,-76.9230769230769,4,2,0,80,0,0
42313,-62.5,4,2,0,80,0,0
42884,-50,4,1,0,80,0,1
59027,-50,4,1,0,75,0,1
59170,-50,4,1,0,70,0,1
59313,-50,4,1,0,65,0,1
59456,-50,4,1,0,60,0,1
59599,-50,4,1,0,55,0,1
59741,-50,4,1,0,50,0,1
59884,-50,4,1,0,45,0,1
60027,-50,4,1,0,40,0,1
60170,-50,4,1,0,35,0,1
60313,-50,4,1,0,30,0,1
60456,-50,4,1,0,25,0,1
60599,-50,4,1,0,20,0,1
60741,-50,4,1,0,15,0,1
60884,-50,4,1,0,10,0,1
61027,-50,4,1,0,5,0,1
61170,-100,4,2,0,5,0,0

[HitObjects]
111,109,599,6,0,P|190:62,1,70,0|0,0:0|0:0,0:0:0
291,110,1170,2,0,P|217:158,1,70,0|0,0:0|0:0,0:0:0
149,244,1742,6,0,P|120:265|75:260|75:260|47:285,2,105,4|0|0,0:0|0:0|0:0,0:0:0
266,200,2884,1,8,0:0:0
359,114,3170,1,0,0:0:0
336,238,3456,1,8,0:0:0
283,124,3741,1,0,0:0:0
393,184,4027,6,0,P|456:179|485:147,2,105,4|0|0,0:0|0:0|0:0,0:0:0
283,124,5170,1,8,0:0:0
389,56,5456,1,0,0:0:0
393,184,5741,2,0,P|378:266,1,70,8|0,0:0|0:0,0:0:0
187,331,6313,5,4,0:0:0
256,52,6741,1,2,0:0:0
256,52,6884,2,0,P|256:132,1,70,2|0,0:0|0:0,0:0:0
308,268,7456,5,8,0:0:0
138,172,7741,1,0,0:0:0
323,167,8027,1,8,0:0:0
157,270,8313,1,0,0:0:0
222,55,8599,6,0,P|254:107,1,35,8|0,0:0|0:0,0:0:0
241,224,9027,2,0,P|294:238,1,35,8|0,0:0|0:0,0:0:0
376,330,9456,2,0,P|418:310,1,35,8|0,0:0|0:0,0:0:0
462,200,9741,6,0,P|432:180|429:136|429:136|408:175|371:177,1,140,4|0,0:0|0:0,0:0:0
120,71,10884,6,0,P|98:127,1,35,8|0,0:0|0:0,0:0:0
204,205,11313,2,0,P|196:153,1,35,8|0,0:0|0:0,0:0:0
335,138,11741,2,0,P|354:185,1,35,8|0,0:0|0:0,0:0:0
416,187,12027,6,0,P|428:255|353:262,1,140,4|0,0:0|0:0,0:0:0
271,175,12884,1,2,0:0:0
161,88,13170,6,0,P|121:110,1,35,8|0,0:0|0:0,0:0:0
345,169,13599,2,0,P|378:206,1,35,8|0,0:0|0:0,0:0:0
178,248,14027,2,0,P|148:290,1,35,8|0,0:0|0:0,0:0:0
287,313,14456,2,0,P|303:354,1,35,8|0,0:0|0:0,0:0:0
244,209,14884,5,2,0:0:0
158,106,15027,1,2,0:0:0
274,39,15170,1,2,0:0:0
358,143,15313,1,2,0:0:0
244,209,15456,6,0,P|189:238,1,35,8|0,0:0|0:0,0:0:0
158,180,15741,2,0,P|91:164,1,35
126,101,16027,2,0,P|83:58,1,35,8|0,0:0|0:0,0:0:0
150,26,16313,2,0,P|149:-13,1,35
268,209,16599,6,0,P|323:238,1,35,8|0,0:0|0:0,0:0:0
354,180,16884,2,0,P|421:164,1,35
386,101,17170,2,0,P|429:58,1,35,8|0,0:0|0:0,0:0:0
362,26,17456,2,0,P|363:-13,1,35
256,192,17741,12,0,19599,0:0:0
114,93,20027,5,4,0:0:0
139,158,20170,1,0,0:0:0
183,212,20313,1,0,0:0:0
244,245,20456,1,0,0:0:0
313,248,20599,5,8,0:0:0
392,116,20741,1,0,0:0:0
380,270,20884,1,8,0:0:0
320,126,21027,1,0,0:0:0
438,226,21170,5,2,0:0:0
288,185,21313,1,0,0:0:0
134,191,21456,1,0,0:0:0
1,270,21599,1,0,0:0:0
133,352,21741,5,8,0:0:0
183,212,21884,1,0,0:0:0
206,361,22027,1,8,0:0:0
254,219,22170,1,0,0:0:0
350,329,22313,5,4,0:0:0
402,185,22456,1,2,0:0:0
402,185,22527,1,2,0:0:0
402,185,22599,1,2,0:0:0
254,219,22741,1,0,0:0:0
118,286,22884,5,8,0:0:0
127,131,23027,1,0,0:0:0
254,219,23170,1,8,0:0:0
267,65,23313,1,0,0:0:0
405,139,23456,6,0,P|446:153,1,35,2|0,0:0|0:0,0:0:0
334,258,23741,2,0,P|353:289,1,35,2|0,0:0|0:0,0:0:0
202,311,24027,2,0,P|196:345,1,35,2|0,0:0|0:0,0:0:0
63,266,24313,2,0,P|31:291,1,35,2|0,0:0|0:0,0:0:0
92,130,24599,5,4,0:0:0
268,13,24741,1,0,0:0:0
385,193,24884,1,0,0:0:0
202,312,25027,1,0,0:0:0
169,93,25170,5,8,0:0:0
316,86,25312,1,0,0:0:0
321,236,25455,1,8,0:0:0
169,241,25598,1,0,0:0:0
247,118,25741,5,2,0:0:0
288,184,25884,1,0,0:0:0
223,226,26027,1,0,0:0:0
187,161,26170,1,0,0:0:0
239,173,26313,5,8,0:0:0
239,173,26456,1,0,0:0:0
239,173,26599,1,8,0:0:0
239,173,26741,1,0,0:0:0
118,202,26884,5,4,0:0:0
120,131,27027,1,0,0:0:0
162,74,27170,1,0,0:0:0
226,46,27313,1,0,0:0:0
350,131,27456,5,8,0:0:0
348,202,27599,1,0,0:0:0
306,259,27742,1,8,0:0:0
242,287,27885,1,0,0:0:0
83,304,28027,5,4,0:0:0
119,197,28170,1,0,0:0:0
214,136,28313,1,0,0:0:0
326,124,28456,1,0,0:0:0
280,227,28599,5,12,0:0:0
214,136,28741,1,0,0:0:0
326,124,28884,1,8,0:0:0
280,227,29027,1,0,0:0:0
214,136,29170,6,0,P|211:119|209:93,1,35,6|0,0:0|0:0,0:0:0
342,211,29456,2,0,P|336:172,1,35,2|0,0:0|0:0,0:0:0
239,280,29741,2,0,P|234:237,1,35,8|0,0:0|0:0,0:0:0
366,355,30027,2,0,P|358:314,1,35,8|0,0:0|0:0,0:0:0
454,247,30313,5,2,0:0:0
434,182,30456,1,0,0:0:0
379,138,30599,1,2,0:0:0
309,132,30741,1,0,0:0:0
326,198,30884,5,8,0:0:0
288,254,31027,1,0,0:0:0
218,257,31170,1,8,0:0:0
182,196,31313,1,0,0:0:0
207,131,31456,6,0,P|249:113,1,35,2|0,0:0|0:0,0:0:0
396,254,31741,2,0,P|364:268,1,35,2|0,0:0|0:0,0:0:0
380,133,32027,2,0,P|338:115,1,35,8|0,0:0|0:0,0:0:0
190,256,32313,2,0,P|223:270,1,35,8|0,0:0|0:0,0:0:0
290,89,32599,5,4,0:0:0
136,48,32741,1,0,0:0:0
253,146,32884,1,0,0:0:0
98,104,33027,1,0,0:0:0
100,264,33170,5,4,0:0:0
254,223,33312,1,0,0:0:0
137,321,33455,1,0,0:0:0
292,279,33598,1,0,0:0:0
424,184,33741,6,0,P|432:138,1,35,4|0,0:0|0:0,0:0:0
244,110,34027,2,0,P|272:149,1,35
225,247,34313,2,0,P|180:235,1,35,8|0,0:0|0:0,0:0:0
77,324,34599,2,0,P|121:313,1,35,8|0,0:0|0:0,0:0:0
237,304,34884,5,2,0:0:0
340,260,35027,1,0,0:0:0
408,168,35170,1,2,0:0:0
418,56,35313,1,0,0:0:0
345,172,35456,5,8,0:0:0
226,261,35599,1,0,0:0:0
208,114,35741,1,8,0:0:0
345,172,35884,1,0,0:0:0
226,261,36027,5,2,0:0:0
226,261,36170,1,0,0:0:0
226,261,36313,1,2,0:0:0
226,261,36456,1,0,0:0:0
226,261,36599,1,2,0:0:0
226,261,36741,1,0,0:0:0
226,261,36884,1,2,0:0:0
226,261,37027,1,0,0:0:0
197,259,37170,5,8,0:0:0
172,245,37313,1,0,0:0:0
160,219,37456,1,8,0:0:0
160,190,37599,1,0,0:0:0
171,164,37741,1,8,0:0:0
191,145,37884,1,0,0:0:0
215,130,38027,1,8,0:0:0
238,123,38170,1,0,0:0:0
262,120,38313,6,0,P|307:120,1,35,2|0,0:0|0:0,0:0:0
331,192,38599,2,0,P|364:222,1,35,2|0,0:0|0:0,0:0:0
295,272,38884,2,0,P|296:312,1,35,2|0,0:0|0:0,0:0:0
205,289,39170,2,0,P|172:316,1,35,2|0,0:0|0:0,0:0:0
128,237,39456,5,2,0:0:0
122,209,39599,1,0,0:0:0
125,188,39741,1,2,0:0:0
135,174,39884,1,0,0:0:0
147,167,40027,1,2,0:0:0
157,166,40170,1,0,0:0:0
163,166,40313,1,2,0:0:0
166,166,40456,1,0,0:0:0
166,166,41170,6,0,P|249:166,1,70,8|0,0:0|0:0,0:0:0
408,244,41741,6,0,P|305:244,1,90.9999958343508,8|0,0:0|0:0,0:0:0
131,325,42313,6,0,P|267:325,1,112,8|0,0:0|0:0,0:0:0
336,191,42884,5,4,0:0:0
404,98,43170,2,0,P|414:56|407:26,2,70,8|0|0,0:0|0:0|0:0,0:0:0
336,191,43741,1,8,0:0:0
274,92,44027,6,0,P|252:60|212:41,1,70
151,127,44313,2,0,P|113:115|73:124,1,70
131,234,44599,2,0,P|99:254|85:291,1,70
225,314,44884,2,0,P|229:348|249:381,1,70
327,252,45170,5,0,0:0:0
249,154,45313,1,8,0:0:0
249,154,45384,1,8,0:0:0
249,154,45456,1,8,0:0:0
364,208,45599,1,0,0:0:0
224,282,45741,5,0,0:0:0
302,184,45884,1,8,0:0:0
302,184,45955,1,8,0:0:0
302,184,46027,1,8,0:0:0
187,238,46170,1,0,0:0:0
200,112,46313,5,4,0:0:0
366,64,46456,1,0,0:0:0
202,64,46599,1,8,0:0:0
371,111,46741,1,0,0:0:0
143,88,46884,5,4,0:0:0
426,89,47027,1,0,0:0:0
143,88,47170,1,4,0:0:0
426,89,47313,1,0,0:0:0
143,88,47456,6,0,P|97:98|66:124,1,70,4|0,0:0|0:0,0:0:0
178,274,47741,2,0,P|224:264|242:251,1,70
66,201,48027,2,0,P|75:247|88:265,1,70,8|0,0:0|0:0,0:0:0
254,166,48313,2,0,P|243:119|231:101,1,70,8|0,0:0|0:0,0:0:0
87,147,48599,5,2,0:0:0
221,229,48741,1,0,0:0:0
167,81,48884,1,0,0:0:0
123,234,49027,1,0,0:0:0
247,137,49170,5,8,0:0:0
67,43,49313,1,0,0:0:0
123,234,49456,1,8,0:0:0
252,102,49599,1,0,0:0:0
51,80,49741,6,0,P|19:150,1,70,8|0,0:0|0:0,0:0:0
285,228,50027,2,0,P|321:143,1,70,0|0,0:0|0:0,0:0:0
89,71,50313,6,0,P|57:141,1,70,8|0,0:0|0:0,0:0:0
323,219,50599,2,0,P|359:134,1,70,0|0,0:0|0:0,0:0:0
100,132,50884,6,0,P|68:202,1,70,8|0,0:0|0:0,0:0:0
334,280,51170,2,0,P|370:195,1,70,0|0,0:0|0:0,0:0:0
174,53,51456,6,0,P|142:123,1,70,8|0,0:0|0:0,0:0:0
408,201,51742,2,0,P|444:116,1,70,0|0,0:0|0:0,0:0:0
181,120,52027,5,4,0:0:0
174,259,52170,2,0,P|211:278|250:265,1,70,2|0,0:0|0:0,0:0:0
310,160,52456,1,0,0:0:0
174,259,52599,2,0,P|129:261|105:249,1,70,8|0,0:0|0:0,0:0:0
72,179,52884,2,0,P|104:197|144:200,1,70,8|0,0:0|0:0,0:0:0
246,153,53170,5,4,0:0:0
370,57,53313,1,0,0:0:0
307,211,53456,1,0,0:0:0
438,109,53599,1,0,0:0:0
310,160,53741,5,8,0:0:0
121,106,53884,1,0,0:0:0
314,78,54027,1,8,0:0:0
124,25,54170,1,0,0:0:0
345,124,54313,6,0,P|377:167|382:195,1,70,2|0,0:0|0:0,0:0:0
324,281,54599,2,0,P|281:313|253:318,1,70
167,260,54884,2,0,P|135:217|130:189,1,70,2|0,0:0|0:0,0:0:0
188,103,55170,2,0,P|231:71|259:66,1,70
293,157,55456,5,2,0:0:0
293,228,55599,1,0,0:0:0
222,229,55741,1,0,0:0:0
221,156,55884,1,0,0:0:0
293,157,56027,5,2,0:0:0
226,298,56170,1,8,0:0:0
226,298,56241,1,8,0:0:0
226,298,56313,1,8,0:0:0
135,171,56456,1,8,0:0:0
293,157,56599,6,0,P|347:147|362:127,1,70,4|0,0:0|0:0,0:0:0
444,21,56884,2,0,P|409:24|382:48,1,70
435,169,57170,2,0,P|425:115|405:100,1,70,8|0,0:0|0:0,0:0:0
299,18,57456,2,0,P|302:53|326:80,1,70,8|0,0:0|0:0,0:0:0
410,117,57741,5,4,0:0:0
202,76,57884,1,0,0:0:0
161,284,58027,1,0,0:0:0
370,318,58170,1,0,0:0:0
330,100,58313,5,8,0:0:0
159,133,58456,1,0,0:0:0
199,305,58599,1,8,0:0:0
369,271,58741,1,0,0:0:0
256,192,58884,12,0,61170,0:0:0
