osu file format v11

[General]
AudioFilename: UNICORN.mp3
AudioLeadIn: 2488
PreviewTime: 41170
Countdown: 0
SampleSet: None
StackLeniency: 0.7
Mode: 0
LetterboxInBreaks: 1

[Editor]
Bookmarks: 1742,20027,42885,61171
DistanceSpacing: 1
BeatDivisor: 4
GridSize: 4

[Metadata]
Title:^)
TitleUnicode:^)
Artist:(^
ArtistUnicode:(^
Creator:Mercurius
Version:AlternativeUC
Source:
Tags:
BeatmapID:217839
BeatmapSetID:77038

[Difficulty]
HPDrainRate:6
CircleSize:4
OverallDifficulty:7
ApproachRate:8
SliderMultiplier:1.62
SliderTickRate:1

[Events]
//Background and Video events
0,0,"bg.jpg"
//Break Periods
//Storyboard Layer 0 (Background)
//Storyboard Layer 1 (Fail)
//Storyboard Layer 2 (Pass)
//Storyboard Layer 3 (Foreground)
//Storyboard Sound Samples
//Background Colour Transformations
3,100,163,162,255

[TimingPoints]
1742,571.428571428571,4,2,0,60,1,0
19953,-66.6666666666667,4,2,0,50,0,0
20027,-66.6666666666667,4,2,0,60,0,0
29741,-66.6666666666667,4,2,0,45,0,0
33741,-66.6666666666667,4,2,0,50,0,0
34884,-66.6666666666667,4,2,0,55,0,0
36027,-66.6666666666667,4,2,0,60,0,0
37170,-66.6666666666667,4,2,0,65,0,0
38313,-66.6666666666667,4,2,0,55,0,0
39456,-66.6666666666667,4,2,0,60,0,0
40027,-66.6666666666667,4,2,0,70,0,0
40599,-133.333333333333,4,2,0,60,0,0
41599,-133.333333333333,4,2,0,20,0,0
41741,-105.263157894737,4,2,0,65,0,0
42170,-105.263157894737,4,2,0,20,0,0
42313,-86.9565217391304,4,2,0,70,0,0
42741,-86.9565217391304,4,2,0,20,0,0
42884,-66.6666666666667,4,1,0,80,0,1
45599,-66.6666666666667,4,1,0,30,0,1
45741,-66.6666666666667,4,1,0,80,0,1
46599,-66.6666666666667,4,1,0,80,0,0
47456,-66.6666666666667,4,1,0,80,0,1
50884,-66.6666666666667,4,1,0,80,0,0
52027,-66.6666666666667,4,1,0,80,0,1
53027,-66.6666666666667,4,1,0,30,0,1
53170,-66.6666666666667,4,1,0,80,0,1
61027,-100,4,2,0,10,0,0
61171,-100,4,1,0,100,0,0
61313,-100,4,2,0,10,0,0

[HitObjects]
120,192,599,2,0,P|156:120|240:88,1,162
292,140,1456,1,8,0:0:0
316,108,1599,1,0,0:0:0
340,76,1741,6,0,P|416:208|388:376,1,324,4|0,0:0|0:0,0:0:0
320,332,3170,1,8,0:0:0
248,296,3456,1,0,0:0:0
172,264,3741,1,8,0:0:0
192,232,3884,1,0,0:0:0
216,200,4027,6,0,P|268:172|284:112,1,121.5,4|0,0:0|0:0,0:0:0
272,76,4599,2,0,P|232:40|164:40,1,121.5
128,56,5170,2,0,P|84:96|72:156,1,121.5
76,196,5741,2,0,P|88:280|144:328,1,162,0|4,0:0|0:0,0:0:0
256,192,6456,12,0,9027,0:0:0
336,256,9456,5,0,0:0:0
360,224,9599,1,0,0:0:0
380,192,9742,2,0,P|364:136|316:96,1,121.5
276,92,10313,2,0,P|208:88|156:104,1,121.5
136,68,10884,6,0,P|96:176|124:300,1,243,4|8,0:0|0:0,0:0:0
152,324,11884,1,0,0:0:0
192,336,12027,1,0,0:0:0
272,340,12313,1,8,0:0:0
312,332,12456,2,0,P|380:272|400:200,1,162
400,164,13170,6,0,P|368:92|300:44,1,162,4|0,0:0|0:0,0:0:0
224,24,14027,1,8,0:0:0
168,80,14313,2,0,P|116:144|104:220,1,162,4|0,0:0|0:0,0:0:0
124,260,15027,1,0,0:0:0
140,296,15170,1,8,0:0:0
256,192,15456,12,0,19456,0:0:0
68,192,20027,6,0,P|92:136,1,60.7500023174287,4|0,0:0|0:0,0:0:0
124,84,20313,1,8,0:0:0
184,84,20456,1,0,0:0:0
220,136,20599,2,0,P|244:196,1,60.7500023174287
264,248,20884,1,8,0:0:0
308,288,21027,1,0,0:0:0
368,296,21170,6,0,P|436:280,1,60.7500023174287
468,236,21456,1,8,0:0:0
484,176,21599,1,0,0:0:0
480,116,21741,2,0,P|452:60,1,60.7500023174287
396,40,22027,2,0,P|332:40,1,60.7500023174287,8|0,0:0|0:0,0:0:0
236,76,22313,5,0,0:0:0
236,76,22456,1,0,0:0:0
236,76,22599,1,8,0:0:0
236,76,22741,1,0,0:0:0
148,192,22884,5,0,0:0:0
148,192,23027,1,0,0:0:0
148,192,23170,1,8,0:0:0
148,192,23313,1,0,0:0:0
236,312,23456,6,0,P|296:312,1,60.7500023174287
432,220,23741,2,0,P|356:220,1,60.7500023174287,8|0,0:0|0:0,0:0:0
188,136,24027,2,0,P|256:136,1,60.7500023174287
456,36,24313,2,0,P|384:36,1,60.7500023174287,8|0,0:0|0:0,0:0:0
252,40,24599,5,0,0:0:0
180,52,24741,1,0,0:0:0
112,76,24884,1,8,0:0:0
64,132,25027,1,0,0:0:0
36,252,25170,5,0,0:0:0
108,240,25313,1,0,0:0:0
176,216,25456,1,8,0:0:0
236,176,25599,1,0,0:0:0
320,112,25741,6,0,P|392:112,1,60.7500023174287
424,172,26027,1,8,0:0:0
352,172,26170,1,0,0:0:0
320,232,26313,2,0,P|400:232,1,60.7500023174287
412,292,26599,1,8,0:0:0
344,292,26741,1,0,0:0:0
308,348,26884,6,0,P|252:316,1,60.7500023174287
200,280,27170,2,0,P|144:244,1,60.7500023174287,8|0,0:0|0:0,0:0:0
96,204,27456,1,0,0:0:0
144,156,27599,1,0,0:0:0
96,112,27741,1,8,0:0:0
48,156,27884,1,0,0:0:0
40,88,28027,6,2,P|88:48|144:32,1,121.500004634857
200,32,28456,2,2,P|296:48|368:96,1,182.250006952286,2|10,0:0|0:0,0:0:0
365,93,29027,1,0,0:0:0
400,144,29170,2,0,P|336:204|248:232,1,182.250006952286,4|0,0:0|0:0,0:0:0
256,192,29741,12,0,31456,0:0:0
224,108,31741,5,8,0:0:0
176,160,31884,2,0,P|48:292,1,182.250006952286,0|8,0:0|0:0,0:0:0
49,290,32456,1,0,0:0:0
112,332,32599,6,0,P|240:352|352:332,1,243.000009269715,4|0,0:0|0:0,0:0:0
400,296,33313,1,0,0:0:0
436,248,33456,1,8,0:0:0
448,188,33599,1,0,0:0:0
448,128,33741,6,0,P|352:80|216:64,1,243.000009269715,4|0,0:0|0:0,0:0:0
152,92,34456,1,0,0:0:0
92,132,34599,1,8,0:0:0
64,200,34741,1,0,0:0:0
76,272,34884,6,0,P|192:324|308:332,1,243.000009269715,4|0,0:0|0:0,0:0:0
380,288,35599,1,0,0:0:0
432,220,35741,1,8,0:0:0
452,136,35884,1,0,0:0:0
428,56,36027,6,0,P|304:32|188:36,1,243.000009269715,4|0,0:0|0:0,0:0:0
120,108,36741,1,0,0:0:0
72,192,36884,1,8,0:0:0
76,288,37027,1,0,0:0:0
128,368,37170,6,0,P|252:376|372:360,1,243.000009269715,4|0,0:0|0:0,0:0:0
440,276,37884,1,0,0:0:0
468,168,38027,1,8,0:0:0
436,64,38170,1,0,0:0:0
332,32,38313,6,0,P|248:32,1,60.7500023174287
172,32,38599,1,8,0:0:0
212,120,38741,1,0,0:0:0
292,172,38884,2,0,P|304:196|288:224,1,60.7500023174287
192,248,39170,2,0,P|180:272|196:300,1,60.7500023174287,8|0,0:0|0:0,0:0:0
280,352,39456,5,0,0:0:0
372,316,39599,1,0,0:0:0
444,252,39741,1,8,0:0:0
472,160,39884,1,0,0:0:0
384,200,40027,6,0,P|336:156,1,60.7500023174287
240,148,40313,1,8,0:0:0
328,64,40456,1,0,0:0:0
52,192,41170,6,0,P|64:148|96:112,1,91.125003476143
140,104,41741,6,0,P|120:164|116:216,1,115.42499691782
172,224,42313,6,0,P|192:152|232:96,1,139.725002665043
284,72,42884,6,0,P|392:136|452:236,1,243.000009269715,4|0,0:0|0:0,0:0:0
416,352,43741,1,8,0:0:0
296,340,44027,2,0,P|184:288,1,121.500004634857,0|8,0:0|0:0,0:0:0
116,188,44599,2,0,P|208:96,1,121.500004634857,0|8,0:0|0:0,0:0:0
296,28,45170,6,0,P|376:92|408:168,1,182.250006952286,4|0,0:0|0:0,0:0:0
352,188,45741,2,0,P|288:96|168:52,1,243.000009269715,4|0,0:0|0:0,0:0:0
40,228,46599,5,8,0:0:0
168,136,46884,1,0,0:0:0
40,48,47170,1,8,0:0:0
216,284,47456,6,0,P|336:296|432:224,1,243.000009269715,4|0,0:0|0:0,0:0:0
444,104,48313,1,8,0:0:0
332,56,48599,2,0,P|272:48|220:80,1,121.500004634857,0|8,0:0|0:0,0:0:0
284,184,49170,2,0,P|208:228|112:232,1,182.250006952286,0|0,0:0|0:0,0:0:0
108,172,49741,6,0,P|48:264|124:352,1,243.000009269715,4|0,0:0|0:0,0:0:0
248,348,50599,1,8,0:0:0
364,316,50884,5,0,0:0:0
328,76,51170,1,8,0:0:0
88,48,51456,1,0,0:0:0
124,288,51741,1,8,0:0:0
184,304,51884,1,0,0:0:0
244,312,52027,6,0,P|308:308|368:288,1,121.500004634857,4|0,0:0|0:0,0:0:0
420,272,52456,2,0,P|424:160|356:52,1,243.000009269715,4|0,0:0|0:0,0:0:0
312,92,53170,5,0,0:0:0
76,36,53456,1,8,0:0:0
100,276,53741,1,0,0:0:0
204,56,54027,1,8,0:0:0
220,116,54170,1,0,0:0:0
236,176,54313,1,4,0:0:0
256,192,54456,12,0,56027,0:0:0
360,84,56313,5,8,0:0:0
320,132,56456,1,0,0:0:0
280,180,56599,2,0,P|192:264,1,121.500004634857,4|0,0:0|0:0,0:0:0
80,308,57170,2,0,P|56:224|72:132,1,182.250006952286,4|0,0:0|0:0,0:0:0
108,84,57741,6,0,P|192:52|288:48,1,182.250006952286,4|0,0:0|0:0,0:0:0
344,56,58313,2,4,P|396:116|400:216,1,182.250006952286
368,264,58884,1,4,0:0:0
256,192,59027,12,0,61170,0:0:0
