osu file format v11

[General]
AudioFilename: sanae san.mp3
AudioLeadIn: 0
PreviewTime: 113502
Countdown: 0
SampleSet: None
StackLeniency: 0.7
Mode: 0
LetterboxInBreaks: 1

[Editor]
DistanceSpacing: 0.8
BeatDivisor: 4
GridSize: 8

[Metadata]
Title:サナエさん
TitleUnicode:
Artist:めらみぽっぷ
ArtistUnicode:
Creator:suraimu_su_
Version:InSanae
Source:
Tags:kochiya sanae
BeatmapID:215064
BeatmapSetID:76297

[Difficulty]
HPDrainRate:5
CircleSize:4
OverallDifficulty:8
ApproachRate:9
SliderMultiplier:1.6
SliderTickRate:2

[Events]
//Background and Video events
0,0,"sanae.jpg"
//Break Periods
2,27456,30942
2,38885,42371
2,64599,68085
2,76028,79514
//Storyboard Layer 0 (Background)
//Storyboard Layer 1 (Fail)
//Storyboard Layer 2 (Pass)
//Storyboard Layer 3 (Foreground)
//Storyboard Sound Samples
//Background Colour Transformations
3,100,163,162,255

[TimingPoints]
114,178.571428571429,4,1,1,80,1,0
31493,-133.333333333333,4,2,1,80,0,0
32922,-100,4,1,1,80,0,0
42922,-133.333333333333,4,2,1,80,0,0
44351,-100,4,1,1,80,0,0
55783,-200,4,1,1,80,0,0
58640,-100,4,1,1,80,0,0
68640,-133.333333333333,4,2,1,80,0,0
70069,-100,4,1,1,80,0,0
80069,-133.333333333333,4,2,1,80,0,0
81497,-100,4,1,1,80,0,0
92926,-200,4,1,1,80,0,0
95783,-100,4,1,1,80,0,0
112926,-200,4,1,1,80,0,0
114355,-100,4,1,1,80,0,0
114399,-100,4,1,1,80,0,1
137256,357.142857142857,4,1,1,80,1,1
137256,-200,4,1,1,80,0,1
139398,178.571428571429,4,1,1,80,1,1
141540,-100,4,1,1,5,0,0

[Colours]
Combo1 : 132,255,255
Combo2 : 192,192,192
Combo3 : 255,132,193

[HitObjects]
96,80,15292,5,2,0:0:0
144,80,15471,1,2,0:0:0
192,80,15649,1,2,0:0:0
320,80,15828,6,0,B|384:32,1,80,4|0,0:0|0:0,0:0:0
336,160,16006,2,0,B|272:208,1,80,8|0,0:0|0:0,0:0:0
416,112,16185,2,0,B|480:64,1,80
416,208,16364,2,0,B|352:256,1,80,8|0,0:0|0:0,0:0:0
336,336,16542,6,0,B|272:352|224:320|224:320|192:360,1,160,0|8,0:0|0:0,0:0:0
152,288,16810,1,0,0:0:0
80,288,16899,2,0,B|32:352,2,80,0|0|8,0:0|0:0|0:0,0:0:0
104,216,17167,1,0,0:0:0
32,192,17256,6,0,B|16:160|16:160|32:144|32:144|16:96|32:64|48:48,1,160,0|8,0:0|0:0,0:0:0
104,104,17524,1,0,0:0:0
176,16,17614,2,0,B|192:48|192:48|176:64|176:64|192:112|176:144|160:160,1,160,0|8,0:0|0:0,0:0:0
168,232,17881,1,0,0:0:0
240,240,17971,6,0,B|272:272|272:272|288:304,1,80,0|0,0:0|0:0,0:0:0
304,208,18149,2,0,B|336:176|336:176|368:160,1,80,8|0,0:0|0:0,0:0:0
272,144,18328,2,0,B|240:112|240:112|224:80,1,80
208,176,18506,2,0,B|176:208|176:208|144:224,1,80,8|0,0:0|0:0,0:0:0
96,288,18685,6,0,B|112:304|112:304|128:304|128:304|128:336|128:336|176:320|224:352,1,160,0|10,0:0|0:0,0:0:0
256,272,18953,1,0,0:0:0
336,288,19042,2,0,B|384:352,1,80,2|2,0:0|0:0,0:0:0
384,224,19221,2,0,B|464:208,1,80,10|0,0:0|0:0,0:0:0
432,288,19399,2,2,B|496:336,2,80,2|2|10,0:0|0:0|0:0,0:0:0
448,176,19667,6,2,B|440:168|448:144|448:144|480:120|480:48|448:24,1,160,2|2,0:0|0:0,0:0:0
384,80,19935,1,10,0:0:0
320,32,20024,1,0,0:0:0
256,80,20114,6,0,B|224:160,1,80
176,48,20292,2,0,B|96:48,1,80,8|0,0:0|0:0,0:0:0
208,128,20471,2,0,B|176:208,1,80
128,16,20649,2,0,B|48:16,1,80,8|0,0:0|0:0,0:0:0
32,112,20828,6,0,B|0:144|16:192,1,80
160,240,21006,2,0,B|192:208|176:160,1,80,8|0,0:0|0:0,0:0:0
96,176,21185,1,2,0:0:0
72,256,21274,1,2,0:0:0
108,328,21364,1,2,0:0:0
184,352,21453,1,2,0:0:0
256,320,21542,6,2,B|288:352,2,40
304,256,21721,2,2,B|240:192,1,80
368,320,21899,2,2,B|400:352,2,40
416,256,22078,2,2,B|352:192,1,80
448,160,22256,2,2,B|472:128|472:128|448:96,1,80
448,96,22435,2,2,B|472:64|472:64|448:32,1,80
368,64,22614,1,2,0:0:0
304,96,22703,1,2,0:0:0
240,64,22792,1,2,0:0:0
176,96,22881,1,2,0:0:0
128,160,22971,6,2,B|80:120|112:48,2,120
80,224,23328,2,2,B|32:264|64:336,2,120
40,160,23685,1,2,0:0:0
136,280,23864,6,2,B|136:360,1,80
208,240,24043,2,0,B|208:320,1,80,0|0,0:0|0:0,0:0:0
280,200,24221,2,0,B|280:280,1,80,8|0,0:0|0:0,0:0:0
320,352,24399,6,0,B|384:352|384:352|400:336,1,80,4|0,0:0|0:0,0:0:0
480,224,24578,2,0,B|480:144,1,80,8|0,0:0|0:0,0:0:0
368,304,24756,2,0,B|432:304|432:304|448:288,1,80,4|0,0:0|0:0,0:0:0
432,160,24935,2,0,B|432:80,1,80,8|0,0:0|0:0,0:0:0
352,64,25114,5,4,0:0:0
352,64,25203,1,0,0:0:0
352,64,25292,1,8,0:0:0
352,64,25381,1,0,0:0:0
432,16,25471,6,0,B|448:64|432:96,1,80,4|0,0:0|0:0,0:0:0
272,96,25649,2,0,B|256:48|272:16,1,80,12|0,0:0|0:0,0:0:0
328,144,25828,6,0,B|312:208|232:208|216:144,1,160,4|8,0:0|0:0,0:0:0
168,80,26096,1,0,0:0:0
96,48,26185,2,0,B|56:56|40:104,1,80
112,136,26364,2,0,B|80:160|72:208,1,80,8|0,0:0|0:0,0:0:0
120,280,26542,2,0,B|40:280,1,80
176,336,26721,2,0,B|120:280,1,80,8|0,0:0|0:0,0:0:0
152,208,26899,6,0,B|176:208|192:176|192:176|208:192|224:192|224:192|232:184|232:184|232:192|232:192|240:184|240:184|240:192|240:192|248:184|248:184|248:192|248:192|256:184|256:184|264:192|264:192|264:184|264:184|272:192|272:192|272:184|272:184|280:192|280:192|280:184|280:184|288:192|288:192|304:192|320:176|320:176|336:208|360:208,1,320,0|4,0:0|0:0,0:0:0
88,248,31542,6,2,B|128:192|88:136,1,120.000004577637
80,120,31810,1,2,0:0:0
72,104,31899,2,2,B|104:48,2,60.0000022888184
32,192,32256,6,2,B|152:192,1,120.000004577637
176,168,32524,1,2,0:0:0
208,136,32614,2,0,B|272:112|344:192|304:264,1,180.000006866455,4|0,0:0|0:0,0:0:0
256,272,32971,6,0,B|304:336,1,80,6|0,0:0|0:0,0:0:0
376,296,33149,2,0,B|456:296,1,80,8|0,0:0|0:0,0:0:0
472,192,33328,2,0,B|488:152|472:112,2,80,0|0|8,0:0|0:0|0:0,0:0:0
400,152,33596,1,0,0:0:0
344,56,33685,2,0,B|320:136,1,80,2|0,0:0|0:0,0:0:0
256,88,33864,2,0,B|256:8,1,80,8|0,0:0|0:0,0:0:0
168,56,34042,2,0,B|192:136,1,80
112,128,34221,2,0,B|72:104|32:128,1,80,8|0,0:0|0:0,0:0:0
72,192,34399,6,0,B|32:224|40:304|104:328,1,160,2|8,0:0|0:0,0:0:0
128,248,34667,1,0,0:0:0
208,248,34756,2,0,B|208:160,1,80
208,248,34935,2,0,B|296:248,1,80,8|0,0:0|0:0,0:0:0
320,328,35114,2,0,B|384:328|384:328|416:304|416:304|472:304,1,160,2|8,0:0|0:0,0:0:0
440,224,35381,2,0,B|376:224|376:224|344:248|344:248|288:248,1,160,0|0,0:0|0:0,0:0:0
264,168,35649,1,8,0:0:0
424,64,35828,6,0,B|448:32|448:32|488:24,1,80,2|0,0:0|0:0,0:0:0
424,64,36006,2,0,B|456:96|456:96|464:128,1,80,8|0,0:0|0:0,0:0:0
424,64,36185,2,0,B|264:64,1,160,0|8,0:0|0:0,0:0:0
176,32,36542,6,0,B|176:112,1,80,2|0,0:0|0:0,0:0:0
16,88,36720,2,0,B|16:176,1,80,8|0,0:0|0:0,0:0:0
96,56,36899,2,0,B|96:216,1,160,0|8,0:0|0:0,0:0:0
176,240,37256,6,0,B|200:272|200:272|192:312|160:344|112:320,1,160,2|8,0:0|0:0,0:0:0
40,280,37524,1,0,0:0:0
96,216,37614,2,0,B|112:176|152:160,1,80,0|0,0:0|0:0,0:0:0
176,240,37792,2,0,B|256:240,2,80,8|0|2,0:0|0:0|0:0,0:0:0
336,80,38149,6,0,B|384:88|400:128,1,80
480,208,38328,2,0,B|456:248|416:248,1,80
288,280,38506,2,0,B|272:240|296:200,1,80
368,192,38685,1,4,0:0:0
480,352,42971,5,2,0:0:0
384,352,43149,2,2,B|320:352,2,60.0000022888184
480,256,43506,2,2,B|480:192,2,60.0000022888184
408,280,43864,1,2,0:0:0
408,280,43953,1,2,0:0:0
408,280,44042,2,0,B|400:272|400:272|400:264|400:264|392:272|392:272|392:264|392:264|384:256|384:256|384:248|384:248|376:256|376:256|376:248|376:248|368:240|368:240|368:232|368:232|360:240|360:240|360:232|360:232|352:224|352:224|352:216|352:216|344:224|344:224|344:216|344:216|320:192,1,180.000006866455,4|0,0:0|0:0,0:0:0
296,192,44399,6,0,B|216:192,1,80,6|0,0:0|0:0,0:0:0
216,272,44578,2,0,B|216:192,1,80,8|0,0:0|0:0,0:0:0
136,192,44756,2,0,B|216:192,1,80
216,112,44935,2,0,B|216:192,1,80,8|0,0:0|0:0,0:0:0
104,272,45114,6,0,B|64:232|64:232|64:128,1,160,2|8,0:0|0:0,0:0:0
112,40,45381,2,0,B|80:40|80:40|64:32|64:32|32:32,2,80
136,112,45649,2,0,B|224:112,1,80,8|0,0:0|0:0,0:0:0
256,32,45828,6,0,B|296:32|296:32|344:40|352:80|352:80|352:120,1,160,2|8,0:0|0:0,0:0:0
352,121,46096,1,0,0:0:0
432,144,46185,2,0,B|432:64,1,80
384,208,46364,2,0,B|432:144,1,80,8|0,0:0|0:0,0:0:0
496,192,46542,6,0,B|400:320,1,160,2|8,0:0|0:0,0:0:0
336,280,46810,2,0,B|296:264|288:216,2,80
328,352,47078,2,0,B|248:352,1,80,8|0,0:0|0:0,0:0:0
160,352,47256,6,0,B|96:336|96:256|160:240,1,160,6|8,0:0|0:0,0:0:0
176,160,47524,1,0,0:0:0
176,160,47614,1,0,0:0:0
176,160,47703,1,0,0:0:0
176,160,47792,1,8,0:0:0
176,160,47881,1,0,0:0:0
96,160,47971,6,0,B|64:88|64:88|144:88,1,160,6|8,0:0|0:0,0:0:0
208,32,48239,2,0,B|240:32|240:32|256:40|256:40|288:40,2,80,0|0|0,0:0|0:0|0:0,0:0:0
256,112,48506,2,0,B|336:112,1,80,8|0,0:0|0:0,0:0:0
288,192,48685,6,0,B|248:192|248:192|224:208|224:240|224:240|240:264|232:304,1,160,6|8,0:0|0:0,0:0:0
152,280,48953,1,0,0:0:0
80,312,49042,2,0,B|96:352|144:360,1,80,4|0,0:0|0:0,0:0:0
96,224,49221,2,0,B|64:256|72:304,1,80,8|0,0:0|0:0,0:0:0
128,152,49399,6,0,B|128:112|96:72|40:64|0:96,1,160,6|12,0:0|0:0,0:0:0
11,88,49667,1,0,0:0:0
48,160,49756,2,0,B|24:200|48:240,1,80,4|0,0:0|0:0,0:0:0
192,104,49935,2,0,B|216:64|192:24,1,80,8|0,0:0|0:0,0:0:0
192,104,50114,6,0,B|288:232,1,160,4|8,0:0|0:0,0:0:0
288,232,50381,1,0,0:0:0
256,304,50471,2,0,B|336:304,1,80
432,304,50650,2,0,B|384:240,1,80,8|0,0:0|0:0,0:0:0
336,168,50829,6,0,B|288:232,1,80
208,232,51007,1,8,0:0:0
208,232,51096,1,0,0:0:0
128,232,51185,2,0,B|112:272|128:312,1,80
216,344,51364,2,0,B|256:352|256:352|296:344,1,80,8|0,0:0|0:0,0:0:0
368,296,51542,6,0,B|408:312|424:352,1,80
424,240,51721,2,0,B|384:256|368:296,1,80,8|0,0:0|0:0,0:0:0
368,184,51899,2,0,B|408:200|424:240,1,80
424,128,52078,2,0,B|384:144|368:184,1,80,8|0,0:0|0:0,0:0:0
480,32,52256,5,0,0:0:0
480,32,52346,1,0,0:0:0
480,32,52435,1,8,0:0:0
480,32,52524,1,0,0:0:0
480,32,52614,2,0,B|440:48|440:48|368:48|368:48|328:32,1,160,0|8,0:0|0:0,0:0:0
256,72,52881,1,0,0:0:0
256,152,52971,6,0,B|176:152,1,80
144,32,53149,2,0,B|64:32,1,80,8|0,0:0|0:0,0:0:0
104,112,53328,2,0,B|80:152|104:192,3,80,0|0|8|0,0:0|0:0|0:0|0:0,0:0:0
32,208,53685,6,0,B|56:248|32:288,1,80
104,304,53864,2,0,B|80:344|104:384,3,80,0|0|8|0,0:0|0:0|0:0|0:0,0:0:0
184,304,54221,2,0,B|248:288|264:216|224:176,1,160,8|0,0:0|0:0,0:0:0
152,152,54489,1,0,0:0:0
168,232,54578,2,0,B|328:232,1,160,8|0,0:0|0:0,0:0:0
368,168,54846,1,0,0:0:0
408,232,54935,2,0,B|432:256|432:256|408:296|408:296|432:336|432:336|408:360,1,160,8|0,0:0|0:0,0:0:0
480,192,55292,6,0,B|480:112,1,80,8|0,0:0|0:0,0:0:0
480,112,55471,1,0,0:0:0
480,112,55560,1,0,0:0:0
480,112,55649,1,8,0:0:0
480,112,55739,1,0,0:0:0
416,64,55828,6,0,B|336:24|256:64,3,160,4|0|0|0,0:0|0:0|0:0|0:0,0:0:0
376,128,57256,2,0,B|336:112|296:128,1,80
296,256,57613,2,0,B|336:272|376:256,1,80
336,192,57971,1,0,0:0:0
336,192,58150,1,2,0:0:0
336,192,58239,1,2,0:0:0
336,192,58329,2,0,B|216:192,1,120,8|0,0:0|0:0,0:0:0
184,192,58685,6,0,B|104:192,1,80,4|0,0:0|0:0,0:0:0
104,272,58864,2,0,B|24:272,1,80,8|0,0:0|0:0,0:0:0
152,112,59042,2,0,B|72:112,1,80
184,304,59221,2,0,B|104:304,1,80,8|0,0:0|0:0,0:0:0
112,64,59399,2,0,B|32:64,2,80,0|0|8,0:0|0:0|0:0,0:0:0
184,32,59667,2,0,B|224:16|224:16|280:40|272:88|256:112,1,160
256,111,59935,2,0,B|336:112,1,80,8|0,0:0|0:0,0:0:0
384,32,60114,6,0,B|432:64|448:136|392:184,1,160,0|8,0:0|0:0,0:0:0
328,192,60381,1,0,0:0:0
424,240,60471,2,0,B|440:280|480:296,1,80
352,264,60649,2,0,B|328:296|336:344,1,80,8|0,0:0|0:0,0:0:0
272,248,60828,2,0,B|192:248,3,80,0|0|8|0,0:0|0:0|0:0|0:0,0:0:0
176,352,61185,6,2,B|96:352,3,80
32,288,61542,2,2,B|32:208,3,80
96,144,61899,2,2,B|176:144,3,80
256,104,62256,6,2,B|232:64|256:24,2,80
320,64,62524,1,2,0:0:0
384,104,62614,2,2,B|408:144|384:184,2,80
320,144,62881,1,2,0:0:0
320,232,62971,6,2,B|432:232,2,106.666666666667
320,232,63328,2,2,B|400:312,2,106.666666666667
320,232,63685,2,2,B|320:344,2,106.666666666667
256,192,64042,6,0,B|216:168|176:184,1,80,2|0,0:0|0:0,0:0:0
208,256,64221,2,0,B|168:264|152:320,1,80,8|0,0:0|0:0,0:0:0
240,328,64399,1,4,0:0:0
32,352,68685,5,2,0:0:0
128,352,68863,2,2,B|192:352,2,60.0000022888184
32,256,69220,2,2,B|32:192,2,60.0000022888184
104,280,69578,1,2,0:0:0
104,280,69667,1,2,0:0:0
104,280,69756,2,0,B|112:272|112:272|112:264|112:264|120:272|120:272|120:264|120:264|128:256|128:256|128:248|128:248|136:256|136:256|136:248|136:248|144:240|144:240|144:232|144:232|152:240|152:240|152:232|152:232|160:224|160:224|160:216|160:216|168:224|168:224|168:216|168:216|192:192,1,180.000006866455,4|0,0:0|0:0,0:0:0
216,192,70114,6,0,B|280:192|280:192|296:200,1,80,6|0,0:0|0:0,0:0:0
328,128,70292,2,0,B|384:168|384:168|384:192,1,80,8|0,0:0|0:0,0:0:0
464,192,70471,1,0,0:0:0
424,264,70560,1,0,0:0:0
384,336,70649,1,8,0:0:0
304,336,70739,1,0,0:0:0
256,272,70828,6,0,B|176:272|176:272|104:312,1,160,2|8,0:0|0:0,0:0:0
64,240,71096,1,0,0:0:0
32,168,71185,2,0,B|32:88,1,80
112,128,71364,2,0,B|112:48,1,80,8|0,0:0|0:0,0:0:0
200,72,71542,6,0,B|208:48|208:48|256:0|304:48|304:48|312:72,1,160,2|8,0:0|0:0,0:0:0
256,136,71810,1,0,0:0:0
344,152,71899,2,0,B|384:136|400:80,1,80
448,24,72078,2,0,B|480:56|480:104,1,80,8|0,0:0|0:0,0:0:0
440,168,72256,6,0,B|440:192|440:192|448:200|448:200|448:288|448:288|440:296|440:296|440:320,1,160,2|8,0:0|0:0,0:0:0
376,256,72524,1,0,0:0:0
352,336,72614,2,0,B|312:320|296:280,1,80
216,280,72792,2,0,B|296:280,1,80,8|0,0:0|0:0,0:0:0
248,208,72971,6,0,B|176:352,1,160,6|8,0:0|0:0,0:0:0
128,280,73239,1,0,0:0:0
48,288,73328,2,0,B|48:248|48:248|72:216,1,80
72,136,73506,2,0,B|112:136|112:136|144:160,1,80,8|0,0:0|0:0,0:0:0
192,96,73685,6,0,B|256:148|256:148|312:96,1,160,6|8,0:0|0:0,0:0:0
256,48,73953,1,0,0:0:0
192,96,74042,2,0,B|112:96,1,80
32,176,74221,2,0,B|112:176,1,80,8|0,0:0|0:0,0:0:0
176,232,74399,6,0,B|112:248|112:328|176:344,1,160,6|8,0:0|0:0,0:0:0
336,232,74756,2,0,B|400:248|400:328|336:344,1,160,4|8,0:0|0:0,0:0:0
256,288,75114,5,4,0:0:0
256,192,75292,1,4,0:0:0
256,96,75471,1,4,0:0:0
256,96,75560,1,0,0:0:0
256,96,75649,1,0,0:0:0
256,96,75739,1,0,0:0:0
256,96,75828,1,4,0:0:0
448,176,80114,6,2,B|392:216|336:176,1,120.000004577637
320,160,80381,1,2,0:0:0
312,144,80471,2,2,B|320:80|376:48,1,120.000004577637,2|2,0:0|0:0,0:0:0
392,44,80739,1,2,0:0:0
408,48,80828,2,2,B|464:80|472:144,1,120.000004577637,2|2,0:0|0:0,0:0:0
464,160,81096,1,2,0:0:0
448,176,81185,2,0,B|480:200|480:256|448:280|448:280|392:304,1,180.000006866455,4|0,0:0|0:0,0:0:0
360,312,81542,6,0,B|344:280|344:280|304:264,1,80,6|0,0:0|0:0,0:0:0
256,192,81721,2,0,B|248:176|248:176|264:136|264:136|256:120,1,80,8|0,0:0|0:0,0:0:0
209,263,81899,2,0,B|168:280|168:280|152:312,1,80,0|0,0:0|0:0,0:0:0
88,352,82078,2,0,B|48:336|32:296,1,80,8|0,0:0|0:0,0:0:0
96,240,82256,6,0,B|96:160,1,80,2|0,0:0|0:0,0:0:0
176,192,82435,2,0,B|176:112,1,80,8|0,0:0|0:0,0:0:0
32,112,82614,2,0,B|32:72|32:72|56:32|104:24|136:48,1,160,0|8,0:0|0:0,0:0:0
256,48,82971,5,2,0:0:0
256,48,83060,1,0,0:0:0
256,48,83149,1,8,0:0:0
256,48,83239,1,0,0:0:0
256,48,83328,2,0,B|288:24|288:24|328:24|360:72|328:112,1,160,0|8,0:0|0:0,0:0:0
456,112,83685,5,2,0:0:0
456,112,83774,1,0,0:0:0
456,112,83864,1,8,0:0:0
456,112,83953,1,0,0:0:0
456,112,84042,2,0,B|440:192|440:192|456:272,1,160,0|8,0:0|0:0,0:0:0
328,272,84399,5,6,0:0:0
328,272,84488,1,0,0:0:0
328,272,84577,1,8,0:0:0
328,272,84667,1,0,0:0:0
328,272,84756,2,0,B|360:312|328:360|288:360|288:360|256:336,1,160,0|8,0:0|0:0,0:0:0
192,272,85114,6,0,B|136:328,1,80,6|0,0:0|0:0,0:0:0
120,264,85292,2,0,B|40:264,1,80,8|0,0:0|0:0,0:0:0
72,208,85471,2,0,B|32:168|32:104|72:64,1,160,0|8,0:0|0:0,0:0:0
200,64,85828,6,0,B|256:120,1,80,6|0,0:0|0:0,0:0:0
168,144,86006,2,0,B|224:200,1,80,8|0,0:0|0:0,0:0:0
256,120,86185,2,0,B|312:64,1,80,4|0,0:0|0:0,0:0:0
288,200,86363,2,0,B|344:144,1,80,8|0,0:0|0:0,0:0:0
432,112,86542,6,0,B|424:72|384:48,3,80,4|0|4|0,0:0|0:0|0:0|0:0,0:0:0
432,112,86899,1,4,0:0:0
464,192,86989,1,0,0:0:0
432,272,87078,1,4,0:0:0
368,320,87167,1,0,0:0:0
288,328,87256,6,0,B|264:296|216:296|184:328|184:328|152:296,1,160,4|8,0:0|0:0,0:0:0
104,240,87524,1,0,0:0:0
40,280,87614,2,0,B|16:240|40:200,1,80
168,200,87792,2,0,B|192:240|168:280,1,80,8|0,0:0|0:0,0:0:0
104,320,87971,2,0,B|80:360|32:360,1,80
104,160,88149,2,0,B|128:120|176:120,1,80,8|0,0:0|0:0,0:0:0
184,40,88328,2,0,B|232:40|232:40|280:80|280:80|328:80,1,160,0|8,0:0|0:0,0:0:0
392,32,88596,1,0,0:0:0
456,80,88685,6,0,B|472:120|456:160,3,80,0|0|8|0,0:0|0:0|0:0|0:0,0:0:0
456,160,89042,2,0,B|472:200|456:240,3,80,0|0|8|0,0:0|0:0|0:0|0:0,0:0:0
384,200,89399,6,0,B|328:256,1,80,2|0,0:0|0:0,0:0:0
400,312,89578,2,0,B|480:312,1,80,10|0,0:0|0:0,0:0:0
328,144,89756,2,0,B|384:200,1,80,0|0,0:0|0:0,0:0:0
312,352,89935,2,0,B|256:296,1,80,10|0,0:0|0:0,0:0:0
176,216,90114,6,0,B|256:216,1,80
120,240,90292,2,0,B|176:184,1,80,8|0,0:0|0:0,0:0:0
80,288,90471,2,0,B|80:208,1,80
96,344,90649,2,0,B|32:296,1,80,8|0,0:0|0:0,0:0:0
80,208,90828,6,0,B|80:128,1,80
160,160,91006,2,0,B|160:80,1,80,8|0,0:0|0:0,0:0:0
80,48,91185,2,0,B|0:48,1,80
160,80,91364,2,0,B|240:80,1,80,8|0,0:0|0:0,0:0:0
256,160,91542,6,0,B|240:200|256:240,1,80
328,200,91721,2,0,B|336:248|376:264,1,80,8|0,0:0|0:0,0:0:0
408,192,91899,2,0,B|448:216|488:192,1,80
448,128,92078,2,0,B|448:48,1,80
408,264,92256,6,0,B|440:336,1,80,0|0,0:0|0:0,0:0:0
360,136,92435,2,0,B|320:64,1,80,8|0,0:0|0:0,0:0:0
256,32,92614,5,0,0:0:0
256,32,92703,1,0,0:0:0
256,32,92792,1,8,0:0:0
256,32,92881,1,0,0:0:0
256,32,92971,6,0,B|216:32|216:32|144:64|144:64|104:64,3,160,4|0|0|0,0:0|0:0|0:0|0:0,0:0:0
88,136,94399,2,0,B|48:152|32:192,1,80
88,248,94756,2,0,B|48:232|32:192,1,80
136,192,95114,1,0,0:0:0
184,136,95292,1,8,0:0:0
184,136,95381,1,8,0:0:0
184,136,95471,2,0,B|224:160|224:224|184:248,1,120,4|0,0:0|0:0,0:0:0
144,280,95828,6,0,B|120:320|144:360,1,80,6|2,0:0|0:0,0:0:0
216,320,96006,2,0,B|296:320,1,80,10|0,0:0|0:0,0:0:0
296,192,96185,2,0,B|376:192,1,80,2|0,0:0|0:0,0:0:0
376,352,96364,2,0,B|456:352,1,80,8|2,0:0|0:0,0:0:0
408,272,96542,2,0,B|488:272,1,80,2|0,0:0|0:0,0:0:0
440,192,96721,1,10,0:0:0
472,120,96810,6,2,B|496:80|480:32|432:8|384:48,1,160,2|0,0:0|0:0,0:0:0
392,120,97078,2,0,B|312:120,1,80,10|0,0:0|0:0,0:0:0
256,56,97256,2,0,B|232:56|232:56|224:48|224:48|136:48|136:48|128:56|128:56|104:56,1,160,0|8,0:0|0:0,0:0:0
184,120,97524,1,0,0:0:0
104,184,97614,2,0,B|128:184|128:184|136:192|136:192|224:192|224:192|232:184|232:184|256:184,1,160,0|8,0:0|0:0,0:0:0
288,256,97881,1,0,0:0:0
216,288,97971,2,0,B|192:320|200:368,1,80
112,272,98149,2,0,B|72:288|56:328,1,80,8|0,0:0|0:0,0:0:0
32,192,98328,5,2,0:0:0
32,192,98417,1,2,0:0:0
32,192,98506,1,2,0:0:0
32,192,98596,1,2,0:0:0
136,120,98685,1,2,0:0:0
136,120,98774,1,2,0:0:0
136,120,98864,1,2,0:0:0
136,120,98953,1,2,0:0:0
200,256,99042,1,2,0:0:0
200,256,99131,1,2,0:0:0
200,256,99221,1,2,0:0:0
200,256,99310,1,2,0:0:0
256,56,99399,1,2,0:0:0
256,56,99489,1,2,0:0:0
256,56,99578,1,2,0:0:0
256,56,99667,1,2,0:0:0
320,288,99756,1,2,0:0:0
320,288,99846,1,2,0:0:0
320,288,99935,1,2,0:0:0
320,288,100024,1,2,0:0:0
440,240,100114,6,2,B|480:192|440:144,2,106.666666666667
328,144,100471,2,2,B|288:192|328:240,2,106.666666666667
384,192,100828,1,2,0:0:0
384,40,101006,6,0,B|304:40,1,80,10|0,0:0|0:0,0:0:0
280,112,101185,2,0,B|200:112,1,80
200,192,101364,2,0,B|120:192,1,80,8|0,0:0|0:0,0:0:0
56,120,101542,6,0,B|8:192|56:272,1,160,4|8,0:0|0:0,0:0:0
128,272,101810,1,0,0:0:0
200,232,101899,2,0,B|240:208|280:232,1,80
320,304,102078,2,0,B|280:328|240:304,1,80,8|0,0:0|0:0,0:0:0
280,232,102256,2,0,B|328:168,1,80
368,240,102435,2,0,B|448:240,1,80,8|0,0:0|0:0,0:0:0
280,176,102614,2,0,B|328:112,1,80
416,208,102792,2,0,B|496:208,1,80,8|0,0:0|0:0,0:0:0
448,288,102971,6,0,B|496:216|456:136,1,160,0|8,0:0|0:0,0:0:0
440,64,103239,1,0,0:0:0
352,32,103328,2,0,B|312:40|288:80,1,80
368,120,103506,2,0,B|368:160|408:184,1,80,8|0,0:0|0:0,0:0:0
440,64,103685,1,0,0:0:0
280,176,103864,1,8,0:0:0
280,176,103953,1,0,0:0:0
224,104,104042,2,0,B|176:168,1,80
144,80,104221,2,0,B|96:16,1,80,8|0,0:0|0:0,0:0:0
56,96,104399,6,0,B|32:128|32:128|56:160,1,80,0|0,0:0|0:0,0:0:0
56,160,104578,2,0,B|32:192|32:192|56:224,1,80,8|0,0:0|0:0,0:0:0
56,224,104756,2,0,B|32:256|32:256|56:288,1,80
56,288,104935,2,0,B|32:320|32:320|56:352,1,80,8|0,0:0|0:0,0:0:0
136,352,105114,6,0,B|208:312,1,80
136,272,105292,2,0,B|208:232,1,80,8|0,0:0|0:0,0:0:0
136,192,105471,2,0,B|208:152,1,80
136,112,105649,2,0,B|208:72,1,80,8|0,0:0|0:0,0:0:0
288,64,105828,6,0,B|320:32|360:32,1,80
448,96,106006,2,0,B|480:128|480:168,1,80,8|0,0:0|0:0,0:0:0
416,264,106185,2,0,B|384:296|344:296,1,80
256,232,106363,2,0,B|224:200|224:160,1,80,8|0,0:0|0:0,0:0:0
352,160,106542,5,0,0:0:0
352,160,106631,1,0,0:0:0
352,160,106721,1,8,0:0:0
352,160,106810,1,0,0:0:0
352,160,106899,2,0,B|408:176|448:224|456:272,1,160,0|8,0:0|0:0,0:0:0
336,352,107256,6,0,B|288:352|288:352|264:336|240:336|240:336|176:336,1,160,0|8,0:0|0:0,0:0:0
144,264,107524,1,0,0:0:0
88,328,107614,2,0,B|56:304|64:256,1,80
128,184,107792,2,0,B|176:168|208:208,1,80,8|0,0:0|0:0,0:0:0
128,184,107971,6,0,B|120:168|120:168|96:168|96:168|112:152|112:152|56:136|48:88,1,160,0|8,0:0|0:0,0:0:0
128,72,108239,1,0,0:0:0
208,32,108328,2,0,B|224:24|224:24|248:32|248:32|288:32,1,80
256,128,108506,2,0,B|272:136|272:136|296:128|296:128|336:128,1,80,8|0,0:0|0:0,0:0:0
392,64,108685,6,0,B|408:72|408:72|432:64|432:64|456:80|456:80|480:120|456:168,1,160,0|8,0:0|0:0,0:0:0
384,192,108953,1,0,0:0:0
456,248,109042,2,0,B|448:272|448:272|464:296|456:328,1,80
368,280,109221,2,0,B|344:288|344:288|320:272|288:280,1,80,8|0,0:0|0:0,0:0:0
224,224,109399,6,0,B|200:184|224:144,3,80,0|0|8|0,0:0|0:0|0:0|0:0,0:0:0
160,264,109756,2,0,B|136:304|160:344,3,80,0|0|8|0,0:0|0:0|0:0|0:0,0:0:0
80,352,110114,5,0,0:0:0
32,256,110292,1,0,0:0:0
64,144,110471,1,0,0:0:0
144,64,110649,1,0,0:0:0
256,32,110828,1,0,0:0:0
368,64,111006,1,0,0:0:0
448,144,111184,1,0,0:0:0
480,256,111363,1,0,0:0:0
432,352,111541,5,4,0:0:0
64,144,111899,1,0,0:0:0
448,144,112256,1,4,0:0:0
80,352,112614,1,0,0:0:0
256,32,112971,6,0,B|256:48|256:48|248:56|248:56|264:56|264:56|248:64|248:64|264:64|264:64|248:72|248:72|264:72|264:72|248:80|248:80|264:80|264:80|248:88|248:88|264:88|264:88|256:96|256:96|256:144,1,240
256,224,113685,5,0,0:0:0
256,240,113774,1,0,0:0:0
256,256,113864,1,0,0:0:0
256,272,113953,1,0,0:0:0
256,288,114042,1,0,0:0:0
256,304,114131,1,0,0:0:0
256,320,114221,1,0,0:0:0
256,336,114310,1,0,0:0:0
256,352,114399,6,0,B|200:352|200:352|168:328|168:328|104:328,1,160,4|8,0:0|0:0,0:0:0
72,264,114667,1,0,0:0:0
40,200,114756,2,0,B|32:160|32:160|40:120,1,80
112,160,114935,2,0,B|120:120|120:120|112:80,1,80,8|0,0:0|0:0,0:0:0
176,24,115114,2,0,B|192:104,1,80
176,224,115292,2,0,B|192:144,1,80,8|0,0:0|0:0,0:0:0
248,0,115471,2,0,B|264:80,1,80
248,240,115649,2,0,B|264:160,1,80,8|0,0:0|0:0,0:0:0
328,120,115828,6,0,B|344:64|344:64|392:72|432:24,1,160,0|8,0:0|0:0,0:0:0
480,88,116096,1,0,0:0:0
408,136,116185,2,0,B|384:216,1,80
472,192,116364,2,0,B|496:272,1,80,8|0,0:0|0:0,0:0:0
416,288,116542,5,0,0:0:0
328,352,116721,1,8,0:0:0
256,256,116899,1,0,0:0:0
184,352,117078,1,8,0:0:0
96,288,117256,6,0,B|80:272|80:272|104:248|104:248|80:232|72:176|96:152,1,160,4|8,0:0|0:0,0:0:0
160,192,117524,1,0,0:0:0
160,104,117614,2,0,B|136:64|88:72,1,80,0|0,0:0|0:0,0:0:0
200,32,117792,2,0,B|248:48|256:96,1,80,8|0,0:0|0:0,0:0:0
256,160,117971,6,0,B|288:160|288:160|304:168|368:168|384:160|384:160|416:160,1,160,4|8,0:0|0:0,0:0:0
344,88,118239,1,0,0:0:0
408,16,118328,2,0,B|488:16,1,80
448,88,118507,2,0,B|488:104|496:152,1,80,8|0,0:0|0:0,0:0:0
415,160,118685,6,0,B|384:176|384:176|352:208,1,80,4|0,0:0|0:0,0:0:0
272,96,118863,2,0,B|240:64|240:64|224:32,1,80,8|0,0:0|0:0,0:0:0
160,176,119042,2,0,B|128:208|128:208|96:224,1,80,4|0,0:0|0:0,0:0:0
240,288,119220,2,0,B|272:320|272:320|288:352,1,80,8|0,0:0|0:0,0:0:0
336,288,119399,6,0,B|328:336|288:352,1,80,4|0,0:0|0:0,0:0:0
144,192,119578,2,0,B|104:168|104:128,1,80,12|0,0:0|0:0,0:0:0
312,64,119756,2,0,B|344:32|392:48,1,80,12|0,0:0|0:0,0:0:0
448,88,119935,5,8,0:0:0
448,88,120024,1,0,0:0:0
448,88,120114,2,0,B|488:120|488:200|448:232,1,160,4|8,0:0|0:0,0:0:0
376,192,120381,1,0,0:0:0
392,272,120471,2,0,B|424:344,1,80
336,320,120649,2,0,B|304:352|264:352,1,80,8|0,0:0|0:0,0:0:0
248,280,120828,5,0,0:0:0
248,280,121006,1,0,0:0:0
176,248,121185,1,8,0:0:0
176,248,121364,1,0,0:0:0
208,336,121542,6,0,B|176:312|128:336,1,80,4|0,0:0|0:0,0:0:0
24,352,121721,2,0,B|64:328|72:288,1,80,8|0,0:0|0:0,0:0:0
96,200,121899,2,0,B|112:240|152:256,2,80,4|0|8,0:0|0:0|0:0,0:0:0
64,104,122256,6,0,B|32:32,1,80,4|0,0:0|0:0,0:0:0
192,96,122435,2,0,B|176:176,1,80,12|0,0:0|0:0,0:0:0
320,96,122614,2,0,B|336:176,1,80,4|0,0:0|0:0,0:0:0
448,104,122792,2,0,B|480:32,1,80,8|0,0:0|0:0,0:0:0
472,192,122971,6,0,B|464:232|480:272,1,80
424,328,123149,2,0,B|384:328|352:360,1,80,8|0,0:0|0:0,0:0:0
400,256,123328,2,0,B|344:200,3,80,0|0|8|0,0:0|0:0|0:0|0:0,0:0:0
320,280,123685,6,0,B|176:352,1,160,0|8,0:0|0:0,0:0:0
240,224,124042,2,0,B|96:296,1,160,0|8,0:0|0:0,0:0:0
40,224,124399,2,0,B|16:184,4,40,0|0|0|0|8,0:0|0:0|0:0|0:0|0:0,0:0:0
80,136,124667,2,0,B|80:96,4,40,0|0|8|0|8,0:0|0:0|0:0|0:0|0:0,0:0:0
152,64,124935,2,0,B|176:32,4,40
184,152,125292,5,0,0:0:0
296,176,125471,1,8,0:0:0
400,200,125649,1,0,0:0:0
400,200,125828,6,0,B|464:152,1,80,4|0,0:0|0:0,0:0:0
464,72,126006,2,0,B|400:24,1,80,8|0,0:0|0:0,0:0:0
328,72,126185,2,0,B|328:152,1,80
400,200,126364,1,8,0:0:0
400,200,126453,1,0,0:0:0
400,200,126542,2,0,B|432:232|432:272,1,80
360,304,126721,2,0,B|352:344|312:368,1,80,8|0,0:0|0:0,0:0:0
288,272,126899,2,0,B|280:232|240:208,1,80,0|0,0:0|0:0,0:0:0
216,304,127078,2,0,B|208:344|168:368,1,80,8|0,0:0|0:0,0:0:0
136,288,127256,6,0,B|136:240|136:240|136:216|112:192|112:192|112:136,1,160,0|8,0:0|0:0,0:0:0
32,168,127524,1,0,0:0:0
56,248,127614,2,0,B|56:328,1,80
192,152,127792,2,0,B|192:72,1,80,8|0,0:0|0:0,0:0:0
120,32,127971,5,0,0:0:0
32,72,128149,1,8,0:0:0
120,112,128328,1,0,0:0:0
32,152,128506,1,8,0:0:0
120,192,128685,6,0,B|120:304|120:304|96:344,1,160,0|8,0:0|0:0,0:0:0
40,272,128953,1,0,0:0:0
96,344,129042,2,0,B|176:344,1,80
280,272,129221,2,0,B|200:272,1,80,8|0,0:0|0:0,0:0:0
200,192,129399,6,0,B|200:80|200:80|224:40,1,160,0|8,0:0|0:0,0:0:0
288,80,129667,2,0,B|328:8,2,80,0|0|0,0:0|0:0|0:0,0:0:0
288,160,129935,2,0,B|368:160,1,80,8|0,0:0|0:0,0:0:0
384,80,130114,6,0,B|464:80,1,80,4|0,0:0|0:0,0:0:0
432,200,130292,2,0,B|432:280,1,80,8|0,0:0|0:0,0:0:0
424,32,130471,2,0,B|504:32,1,80,4|0,0:0|0:0,0:0:0
480,224,130649,2,0,B|480:304,1,80
344,104,130828,6,0,B|328:64|288:48,1,80,4|0,0:0|0:0,0:0:0
176,32,131006,2,0,B|128:32|96:64,1,80,12|0,0:0|0:0,0:0:0
40,160,131185,2,0,B|16:200|32:248,1,80,4|0,0:0|0:0,0:0:0
104,280,131364,5,8,0:0:0
104,280,131453,1,0,0:0:0
104,280,131542,2,0,B|184:280|184:280|232:344,1,160,0|8,0:0|0:0,0:0:0
256,248,131810,1,0,0:0:0
328,288,131899,2,0,B|344:248|328:208,1,80
240,168,132078,2,0,B|200:176|176:216,1,80,8|0,0:0|0:0,0:0:0
240,88,132256,6,0,B|240:168,1,80
320,112,132435,2,0,B|320:32,1,80,8|0,0:0|0:0,0:0:0
400,88,132614,2,0,B|400:168,1,80
480,112,132792,2,0,B|480:32,1,80,8|0,0:0|0:0,0:0:0
480,112,132971,6,0,B|480:192|480:192|456:224|456:224|456:264,1,160,0|8,0:0|0:0,0:0:0
456,344,133239,1,0,0:0:0
384,344,133328,2,0,B|344:360|304:344,1,80
384,344,133506,2,0,B|360:312|376:264,1,80,8|0,0:0|0:0,0:0:0
336,192,133685,6,0,B|312:192|312:192|296:176|296:176|280:200|280:200|240:184|192:200,1,160,0|8,0:0|0:0,0:0:0
232,272,133953,1,0,0:0:0
184,344,134042,2,0,B|152:320|152:272,1,80
72,272,134221,2,0,B|152:272,1,80,8|0,0:0|0:0,0:0:0
40,192,134399,6,0,B|32:112,1,80,4|0,0:0|0:0,0:0:0
136,40,134578,2,0,B|112:120,1,80,8|0,0:0|0:0,0:0:0
184,216,134756,2,0,B|160:136,1,80,4|0,0:0|0:0,0:0:0
264,48,134935,2,0,B|240:136,1,80,8|0,0:0|0:0,0:0:0
256,328,135114,2,0,B|240:240,1,80,4|0,0:0|0:0,0:0:0
312,160,135292,2,0,B|352:88,1,80,8|0,0:0|0:0,0:0:0
336,264,135471,2,0,B|376:336,1,80,4|0,0:0|0:0,0:0:0
424,184,135649,2,0,B|448:104,1,80,8|0,0:0|0:0,0:0:0
480,32,135828,6,0,B|400:32,1,80,4|0,0:0|0:0,0:0:0
320,96,136006,2,0,B|400:136,1,80,8|0,0:0|0:0,0:0:0
400,264,136185,2,0,B|352:200,1,80,4|0,0:0|0:0,0:0:0
312,272,136364,2,0,B|288:352,1,80,8|0,0:0|0:0,0:0:0
272,192,136542,6,0,B|192:192,1,80,4|0,0:0|0:0,0:0:0
208,80,136721,2,0,B|128:80,1,80,4|0,0:0|0:0,0:0:0
208,344,136899,2,0,B|184:328|184:328|176:344|160:352|160:352|144:344|144:344|112:360|64:344,1,160,4|0,0:0|0:0,0:0:0
112,224,137256,6,0,B|44:224|-35:144|-23:65|66:-24|145:-36|225:42|225:110,1,480
256,312,139576,6,0,B|328:352,1,80,4|0,0:0|0:0,0:0:0
368,224,139754,2,0,B|456:248,1,80,4|0,0:0|0:0,0:0:0
424,96,139933,2,0,B|512:88,1,80,4|0,0:0|0:0,0:0:0
336,32,140111,1,4,0:0:0
256,192,140201,12,0,141540,0:0:0
