osu file format v14

[General]
AudioFilename: PV Records - WARNINGWARNINGWARNING.mp3
AudioLeadIn: 0
PreviewTime: 15443
Countdown: 1
SampleSet: None
StackLeniency: 0.7
Mode: 0
LetterboxInBreaks: 1
WidescreenStoryboard: 0

[Editor]
Bookmarks: 27972,50384,56031,57442,76483,79307,115218,120424,131277,135071,136748,154836,248542,261071
DistanceSpacing: 0.7
BeatDivisor: 4
GridSize: 32
TimelineZoom: 1.7

[Metadata]
Title:WARNINGWARNINGWARNING
TitleUnicode:WARNING×WARNING×WARNING
Artist:[East vocal PV] Akatsuki Records
ArtistUnicode:【東方ボーカルPV】 暁Records
Creator:Randy_tnt
Version:Hard
Source:
Tags:WARNING clownpiece touhou
BeatmapID:1023814
BeatmapSetID:479460

[Difficulty]
HPDrainRate:7
CircleSize:4
OverallDifficulty:7
ApproachRate:9
SliderMultiplier:1.4
SliderTickRate:1

[Events]
//Background and Video events
0,0,"maxresdefault.jpg",0,0
//Break Periods
2,90359,102707
2,165624,176648
//Storyboard Layer 0 (Background)
//Storyboard Layer 1 (Fail)
//Storyboard Layer 2 (Pass)
//Storyboard Layer 3 (Foreground)
//Storyboard Sound Samples

[TimingPoints]
15443,352.941176470588,4,1,0,100,1,0
27984,-133.333333333333,4,1,0,100,0,0
50384,-200,4,1,0,100,0,0
56013,352.941176470588,4,1,0,100,1,0
56013,-66.6666666666667,4,1,0,100,0,0
56031,-100,4,1,0,100,0,0
66601,-66.6666666666667,4,1,0,100,0,0
79307,-100,4,1,0,100,0,0
103307,-133.333333333333,4,1,0,100,0,0
125718,-200,4,1,0,100,0,0
131189,-100,4,1,0,100,0,0
141954,-66.6666666666667,4,1,0,100,0,0
154836,-100,4,1,0,100,0,0
206277,-100,4,1,0,100,0,0

[Colours]
Combo1 : 255,192,0
Combo2 : 255,0,0
Combo3 : 18,124,255
Combo4 : 255,255,255

[HitObjects]
96,160,15443,6,0,L|128:96|128:96,1,105
160,96,15795,2,0,P|192:128|192:160,1,70
224,192,16148,2,0,B|288:224|320:192|352:160,1,140
256,128,16854,2,0,P|256:64|384:128,1,280
320,192,17913,5,0,0:0:0:0:
288,192,18090,1,0,0:0:0:0:
157,134,18266,2,0,P|192:160|224:160,4,70
206,94,19148,5,0,0:0:0:0:
260,126,19325,1,0,0:0:0:0:
248,187,19501,1,0,0:0:0:0:
192,218,19678,2,0,B|153:285|89:283|21:187,1,210
40,133,20384,5,0,0:0:0:0:
97,106,20560,1,0,0:0:0:0:
140,151,20737,5,0,0:0:0:0:
120,210,20913,1,0,0:0:0:0:
151,126,21090,6,0,L|230:113,1,70
359,104,21443,6,0,L|280:117,1,70
176,196,21795,2,0,B|123:243|145:279|205:308,1,140
453,190,22501,2,0,B|506:237|464:317|258:285,1,280
28,139,23560,5,0,0:0:0:0:
160,91,23737,1,0,0:0:0:0:
285,151,23913,1,0,0:0:0:0:
153,199,24090,1,0,0:0:0:0:
77,81,24266,1,0,0:0:0:0:
275,151,24531,6,0,P|319:188|305:203,1,70
216,88,24884,1,0,0:0:0:0:
256,192,25237,12,0,27972,0:0:0:0:
141,157,28678,6,0,P|132:122|149:114,1,52.5000020027161
187,116,29031,2,0,P|227:109|237:91,1,52.5000020027161
279,93,29384,2,0,P|317:91|337:104,1,52.5000020027161
363,129,29737,6,0,P|378:157|368:175,1,52.5000020027161
322,173,30090,2,0,P|367:231|405:216,1,105.000004005432
388,227,30795,5,0,0:0:0:0:
351,310,31148,6,0,P|311:317|298:303,1,52.5000020027161
322,268,31501,2,0,P|296:232|226:224,1,105.000004005432
199,247,32031,1,0,0:0:0:0:
156,267,32207,1,0,0:0:0:0:
108,264,32384,1,0,0:0:0:0:
66,241,32560,1,0,0:0:0:0:
49,196,32737,5,0,0:0:0:0:
45,149,32913,2,0,P|26:118|78:89,1,105.000004005432
352,136,34325,6,0,P|356:179|286:203,1,105.000004005432
261,213,34854,5,0,0:0:0:0:
214,205,35031,1,0,0:0:0:0:
178,174,35207,1,0,0:0:0:0:
161,129,35384,1,0,0:0:0:0:
175,84,35560,1,0,0:0:0:0:
212,55,35737,6,0,P|226:89|249:86,2,52.5000020027161
117,45,36443,6,0,B|88:50|59:54|71:120,1,105.000004005432
135,189,37148,2,0,P|195:215|212:256,1,105.000004005432
298,275,37766,5,0,0:0:0:0:
341,255,37943,1,0,0:0:0:0:
369,217,38119,1,0,0:0:0:0:
367,169,38296,1,0,0:0:0:0:
332,136,38472,1,0,0:0:0:0:
284,132,38649,1,0,0:0:0:0:
257,170,38825,1,0,0:0:0:0:
130,120,39972,6,0,P|131:93|156:94,1,52.5000020027161
187,123,40325,6,0,P|214:146|234:138,1,52.5000020027161
221,95,40678,6,0,B|232:68|261:73|289:153,1,105.000004005432
187,123,41384,2,0,B|154:150|177:179|216:209,1,105.000004005432
237,166,41913,6,0,B|263:125|284:123|328:158,1,105.000004005432
405,201,42619,5,0,0:0:0:0:
376,238,42795,1,0,0:0:0:0:
332,257,42972,1,0,0:0:0:0:
284,255,43148,1,0,0:0:0:0:
239,239,43325,1,0,0:0:0:0:
216,155,43678,1,0,0:0:0:0:
251,123,43854,1,0,0:0:0:0:
298,121,44031,6,0,B|337:103|371:109|386:150,1,105.000004005432
298,187,44737,6,0,B|270:169|243:129|254:146|211:189|211:190,1,105.000004005432
142,240,45442,2,0,P|111:244|96:227,1,52.5000020027161
66,194,45795,1,0,0:0:0:0:
63,146,45972,1,0,0:0:0:0:
84,104,46148,1,0,0:0:0:0:
123,78,46325,1,0,0:0:0:0:
167,92,46501,1,0,0:0:0:0:
194,130,46678,1,0,0:0:0:0:
167,169,46854,6,0,B|141:201|144:223|201:244,1,105.000004005432
104,148,50384,6,0,B|126:122|155:144|205:166,1,105
288,196,51442,1,0,0:0:0:0:
330,149,51795,6,0,B|296:149|278:137|250:168|227:184,1,105
176,205,52678,1,2,2:2:0:0:
144,207,52854,1,2,2:2:0:0:
117,189,53031,1,2,2:2:0:0:
101,161,53207,2,0,B|95:125|130:108|224:144,1,140
323,204,54619,5,0,0:0:0:0:
167,127,56013,5,0,0:0:0:0:
209,173,56189,1,0,0:0:0:0:
258,212,56365,2,0,P|291:224|320:204,1,70
304,144,56718,5,0,0:0:0:0:
248,114,56895,1,0,0:0:0:0:
187,131,57071,1,0,0:0:0:0:
163,189,57248,1,0,0:0:0:0:
209,230,57424,6,0,P|256:228|260:246,1,70
214,284,57777,6,0,P|185:301|138:284,1,70
135,233,58130,6,0,P|106:208|72:223,1,70
18,197,58483,5,0,0:0:0:0:
96,160,58660,1,0,0:0:0:0:
128,96,58836,1,0,0:0:0:0:
192,128,59013,1,0,0:0:0:0:
192,64,59189,1,0,0:0:0:0:
160,128,59365,1,0,0:0:0:0:
160,192,59542,5,0,0:0:0:0:
224,192,59718,1,0,0:0:0:0:
256,128,59895,1,0,0:0:0:0:
288,192,60071,1,0,0:0:0:0:
325,141,60248,6,0,P|325:89|351:92,3,70
266,77,60954,2,0,P|205:56|187:77,1,70
109,132,61483,6,0,B|173:164|237:132|333:164,1,210
365,132,62189,1,0,0:0:0:0:
128,219,62895,6,0,B|154:182|181:175|222:211|264:244,1,140
370,253,63601,2,0,B|303:271|260:259|240:225,1,140
256,192,64307,12,4,66601,2:0:0:0:
110,163,66777,6,0,P|141:128|174:173,1,105.000004005432
235,234,67130,1,0,0:0:0:0:
323,200,67307,1,0,0:0:0:0:
335,106,67483,1,0,0:0:0:0:
248,68,67660,1,0,0:0:0:0:
179,133,67836,1,0,0:0:0:0:
321,36,68189,6,0,B|396:45|434:78|416:203,1,210.000008010865
212,263,69424,5,0,0:0:0:0:
151,189,69601,1,0,0:0:0:0:
212,117,69777,1,0,0:0:0:0:
175,37,69954,1,0,0:0:0:0:
120,113,70130,1,0,0:0:0:0:
267,57,70307,5,0,0:0:0:0:
350,100,70483,1,0,0:0:0:0:
277,160,70660,1,0,0:0:0:0:
360,202,70836,5,0,0:0:0:0:
325,234,70924,1,0,0:0:0:0:
278,242,71012,1,0,0:0:0:0:
231,231,71101,1,0,0:0:0:0:
190,204,71189,1,0,0:0:0:0:
178,158,71277,1,0,0:0:0:0:
411,87,71542,5,0,0:0:0:0:
230,142,71895,6,0,B|185:87|101:129|119:113,1,105.000004005432
134,209,72248,2,0,P|45:180|45:157,1,105.000004005432
25,95,72601,5,0,0:0:0:0:
107,140,72777,1,0,0:0:0:0:
96,45,72954,1,0,0:0:0:0:
177,91,73130,1,0,0:0:0:0:
183,185,73307,1,0,0:0:0:0:
95,220,73483,1,0,0:0:0:0:
170,276,73660,6,0,B|213:327|281:311|340:255|334:213|334:213|333:213,1,210.000008010865
307,191,75071,5,0,0:0:0:0:
242,121,75248,1,0,0:0:0:0:
209,209,75424,1,0,0:0:0:0:
277,274,75601,1,0,0:0:0:0:
370,260,75777,1,0,0:0:0:0:
338,349,75954,1,0,0:0:0:0:
243,353,76130,1,0,0:0:0:0:
175,285,76307,1,0,0:0:0:0:
256,192,76483,12,0,79307,0:0:0:0:
90,231,79660,6,0,B|90:188|136:160|196:163,1,140
319,183,80365,2,0,B|391:230|381:258|301:258,1,140
193,209,81071,2,0,B|217:256|244:286|285:281|318:256,1,140
409,199,81777,5,0,0:0:0:0:
318,111,82130,1,0,0:0:0:0:
280,231,82483,1,0,0:0:0:0:
198,134,82836,1,0,0:0:0:0:
155,252,83189,1,0,0:0:0:0:
81,149,83542,1,0,0:0:0:0:
197,196,83895,5,0,0:0:0:0:
304,165,85307,6,0,B|272:139|234:125|170:204,1,140
57,190,86012,2,0,B|107:142|176:165|190:200,1,140
269,279,86630,5,0,0:0:0:0:
371,206,86983,1,0,0:0:0:0:
249,173,87336,1,0,0:0:0:0:
153,90,87689,5,0,0:0:0:0:
50,162,88042,1,0,0:0:0:0:
172,191,88395,1,0,0:0:0:0:
276,120,88748,1,0,0:0:0:0:
290,245,89101,5,0,0:0:0:0:
234,273,89277,1,0,0:0:0:0:
236,210,89453,1,0,0:0:0:0:
293,183,89630,1,0,0:0:0:0:
240,148,89806,1,0,0:0:0:0:
132,213,90159,5,0,0:0:0:0:
131,156,103307,6,0,B|162:103|213:104|248:120|231:121,1,105.000004005432
301,161,104012,2,0,B|301:203|325:217|326:217,1,52.5000020027161
359,230,104365,1,0,0:0:0:0:
405,237,104542,1,0,0:0:0:0:
441,206,104718,1,0,0:0:0:0:
435,158,104895,1,0,0:0:0:0:
399,127,105071,1,0,0:0:0:0:
355,108,105248,6,0,B|311:86|293:91|289:93,1,52.5000020027161
224,139,105777,1,0,0:0:0:0:
279,215,106130,5,0,0:0:0:0:
235,233,106307,1,0,0:0:0:0:
191,215,106483,1,0,0:0:0:0:
98,193,106836,5,0,0:0:0:0:
55,173,107012,1,0,0:0:0:0:
37,128,107189,1,0,0:0:0:0:
66,91,107365,1,0,0:0:0:0:
109,71,107542,1,0,0:0:0:0:
154,82,107718,1,0,0:0:0:0:
193,107,107895,1,0,0:0:0:0:
218,146,108071,5,0,0:0:0:0:
244,185,108248,2,0,B|259:209|226:232|148:191|147:189,1,105.000004005432
118,147,109660,6,0,B|150:112|181:142|221:120,1,105.000004005432
260,104,110189,1,0,0:0:0:0:
307,105,110365,1,0,0:0:0:0:
351,121,110542,1,0,0:0:0:0:
379,158,110718,1,0,0:0:0:0:
360,201,110895,1,0,0:0:0:0:
327,235,111071,6,0,B|296:264|263:281|227:258,1,105.000004005432
153,209,111777,6,0,P|124:193|116:168,1,52.5000020027161,0|0,2:0|2:0,2:0:0:0:
119,128,112130,2,0,P|121:93|101:87,1,52.5000020027161,0|0,2:0|2:0,2:0:0:0:
63,75,112483,2,0,P|26:97|29:116,1,52.5000020027161,0|0,2:0|2:0,2:0:0:0:
25,148,112836,2,0,L|25:203,1,52.5000020027161,0|0,2:0|2:0,2:0:0:0:
40,245,113189,6,0,P|62:273|91:265,1,52.5000020027161,0|0,3:0|3:0,3:0:0:0:
117,248,113542,1,2,0:0:0:0:
185,228,113807,6,0,P|214:221|243:240,1,52.5000020027161,0|0,3:0|3:0,3:0:0:0:
273,256,114160,1,2,0:0:0:0:
45,49,115218,6,0,B|109:61|111:78|153:63,1,105.000004005432
193,53,115748,1,0,0:0:0:0:
238,63,115924,1,0,0:0:0:0:
279,85,116101,1,0,0:0:0:0:
307,122,116277,1,0,0:0:0:0:
312,169,116454,1,0,0:0:0:0:
288,209,116630,6,0,P|263:240|242:238,1,52.5000020027161
206,248,116983,1,4,0:0:0:0:
138,226,117248,6,0,P|103:189|79:183,1,52.5000020027161
67,157,117601,1,0,0:0:0:0:
38,119,117777,5,0,0:0:0:0:
37,71,117954,1,0,0:0:0:0:
74,42,118130,1,0,0:0:0:0:
121,38,118307,1,0,0:0:0:0:
162,60,118483,6,0,P|185:74|198:104,1,52.5000020027161
198,143,118836,1,0,0:0:0:0:
171,181,119012,1,0,0:0:0:0:
189,224,119189,1,0,0:0:0:0:
226,252,119365,6,0,P|269:261|286:255,1,52.5000020027161
316,233,119718,1,0,0:0:0:0:
339,192,119895,1,0,0:0:0:0:
333,145,120071,6,0,B|306:138|291:109|321:83|340:57,1,105.000004005432
429,40,120777,6,0,P|456:68|441:94,1,52.5000020027161
424,114,121130,1,0,0:0:0:0:
390,147,121307,1,0,0:0:0:0:
356,179,121483,1,0,0:0:0:0:
338,223,121660,1,0,0:0:0:0:
335,270,121836,1,0,0:0:0:0:
300,302,122012,1,0,0:0:0:0:
252,297,122189,6,2,P|217:293|204:278,2,52.5000020027161
217,208,122895,6,0,B|176:223|173:244|187:264,1,52.5000020027161
171,287,123248,1,0,0:0:0:0:
123,289,123424,6,0,B|120:259|92:243|92:243|81:238,1,52.5000020027161
69,206,123777,1,0,0:0:0:0:
95,115,124130,5,0,0:0:0:0:
125,79,124307,1,0,0:0:0:0:
170,66,124483,1,0,0:0:0:0:
217,70,124660,1,0,0:0:0:0:
261,85,124836,2,2,P|292:99|293:127,1,52.5000020027161
186,176,125718,6,0,B|220:138|247:157|265:176|288:175|292:158,1,105
378,113,126777,1,0,0:0:0:0:
429,149,127130,6,0,B|423:200|401:202|438:231|435:257|434:257,1,105
406,265,127836,5,0,0:0:0:0:
374,268,128012,1,0,0:0:0:0:
344,257,128189,1,0,0:0:0:0:
326,230,128365,1,0,0:0:0:0:
297,216,128542,6,0,B|272:198|248:191|224:199,1,70
171,178,129248,2,0,B|141:174|122:161|135:128,1,70
181,92,129954,5,0,0:0:0:0:
326,213,131277,2,0,P|366:177|375:149,1,70
395,104,131630,2,0,P|376:63|342:62,1,70
292,68,131983,5,0,0:0:0:0:
245,110,132160,1,0,0:0:0:0:
239,172,132336,1,0,0:0:0:0:
272,224,132512,1,0,0:0:0:0:
333,210,132689,6,0,P|378:218|366:245,1,70
399,289,133042,1,0,0:0:0:0:
364,341,133218,1,0,0:0:0:0:
300,338,133395,1,0,0:0:0:0:
246,304,133571,1,0,0:0:0:0:
196,264,133748,6,0,P|168:237|189:214,1,70
244,214,134101,2,0,P|277:190|262:165,1,70
229,119,134454,1,0,0:0:0:0:
172,92,134630,1,0,0:0:0:0:
110,107,134807,1,0,0:0:0:0:
72,157,134983,1,0,0:0:0:0:
95,215,135160,1,0,0:0:0:0:
138,259,135336,1,0,0:0:0:0:
195,283,135512,6,0,P|239:301|270:270,1,70
318,279,135865,2,0,P|353:247|346:221,1,70
319,173,136218,1,0,0:0:0:0:
260,150,136395,1,0,0:0:0:0:
199,165,136571,1,0,0:0:0:0:
159,214,136748,1,0,0:0:0:0:
138,237,136836,6,0,B|91:285|68:274|60:234|66:178,1,140
73,131,137365,1,0,0:0:0:0:
123,92,137542,1,0,0:0:0:0:
375,94,138248,6,0,P|352:80|317:112,1,70
357,151,138601,2,0,P|316:186|304:177,1,70
300,122,138954,2,0,P|247:145|257:171,1,70
291,188,139307,1,0,0:0:0:0:
256,192,139483,12,4,141954,0:0:0:0:
178,121,142130,5,0,0:0:0:0:
263,162,142307,1,0,0:0:0:0:
179,204,142483,1,0,0:0:0:0:
95,158,142660,1,0,0:0:0:0:
92,252,142836,1,0,0:0:0:0:
177,291,143012,1,0,0:0:0:0:
260,246,143189,1,0,0:0:0:0:
446,214,143542,6,0,B|478:193|466:130|431:95|359:72|335:73,1,210.000008010865
183,107,144777,5,0,0:0:0:0:
110,168,144954,1,0,0:0:0:0:
174,237,145130,2,0,P|238:247|264:218,1,105.000004005432
342,165,145483,1,0,0:0:0:0:
369,74,145660,6,0,P|290:62|267:76,1,105.000004005432
236,153,146012,1,0,0:0:0:0:
285,233,146189,1,0,0:0:0:0:
187,228,146365,1,0,0:0:0:0:
133,150,146542,2,0,P|114:92|154:83,5,105.000004005432
222,130,147601,5,0,0:0:0:0:
142,80,147777,1,0,0:0:0:0:
40,92,147954,2,0,P|15:153|42:181,1,105.000004005432
124,211,148307,2,0,P|185:195|212:228,1,105.000004005432
300,248,148660,5,0,0:0:0:0:
141,146,149012,1,0,0:0:0:0:
257,294,149365,6,0,B|143:309|98:286|71:228|73:178|94:127|94:101,1,315.000012016297
376,101,150424,6,0,P|410:150|394:153,1,105.000004005432
327,200,150777,1,0,0:0:0:0:
283,115,150954,1,0,0:0:0:0:
229,192,151130,1,0,0:0:0:0:
275,274,151307,1,0,0:0:0:0:
180,268,151483,1,0,0:0:0:0:
136,183,151660,1,0,0:0:0:0:
195,110,151836,1,0,0:0:0:0:
256,192,152012,12,4,153777,0:0:0:0:
87,158,155012,6,0,B|102:119|134:124|160:125|191:132|212:168,1,140
108,238,155718,2,0,B|139:261|181:272|218:273|244:232,1,140
351,192,156424,2,0,B|402:173|411:98|344:84,1,140
235,129,157130,5,0,0:0:0:0:
149,221,157483,1,0,0:0:0:0:
274,229,157836,1,0,0:0:0:0:
364,141,158189,1,0,0:0:0:0:
413,257,158542,1,0,0:0:0:0:
314,335,158895,1,0,0:0:0:0:
439,343,159248,6,0,B|414:299|368:251|302:233|182:309,1,280
306,70,160571,6,0,B|251:79|198:149|183:145,1,140
160,200,161277,5,0,0:0:0:0:
182,258,161453,1,0,0:0:0:0:
237,287,161630,1,0,0:0:0:0:
295,264,161806,1,0,0:0:0:0:
333,213,161983,1,0,0:0:0:0:
375,128,162248,6,0,B|333:83|307:68|280:69|246:89,1,140
150,155,162954,5,0,0:0:0:0:
260,215,163307,1,0,0:0:0:0:
316,102,163660,1,0,0:0:0:0:
378,211,164012,1,0,0:0:0:0:
438,100,164365,1,0,0:0:0:0:
387,62,164542,6,0,P|346:63|311:98,3,70
239,173,165424,1,0,0:0:0:0:
189,167,177248,5,0,0:0:0:0:
245,138,177424,1,0,0:0:0:0:
250,200,177601,1,0,0:0:0:0:
193,228,177777,1,0,0:0:0:0:
135,201,177954,1,0,0:0:0:0:
131,138,178130,5,0,0:0:0:0:
184,103,178307,1,0,0:0:0:0:
193,228,178660,2,0,B|241:267|261:256|323:215,1,140
348,143,179718,6,0,P|297:111|267:103,1,70
225,103,180071,1,0,0:0:0:0:
170,135,180248,1,0,0:0:0:0:
142,191,180424,1,0,0:0:0:0:
95,233,180601,5,0,0:0:0:0:
33,219,180777,1,0,0:0:0:0:
2,163,180954,1,0,0:0:0:0:
24,104,181130,1,0,0:0:0:0:
87,102,181307,1,0,0:0:0:0:
130,147,181483,6,0,B|156:186|175:233|246:194|316:206|323:195,1,210
364,158,182189,1,0,0:0:0:0:
415,121,182365,1,0,0:0:0:0:
425,58,182542,1,0,0:0:0:0:
372,22,182718,1,0,0:0:0:0:
311,40,182895,1,0,0:0:0:0:
288,98,183071,1,0,0:0:0:0:
265,157,183248,6,0,P|240:189|204:178,1,70
176,134,183601,1,0,0:0:0:0:
55,96,183954,6,0,B|-1:74|4:50|38:35|94:23|96:25,1,140
451,142,185365,5,0,0:0:0:0:
388,148,185542,1,0,0:0:0:0:
426,197,185718,1,0,0:0:0:0:
363,204,185895,1,0,0:0:0:0:
328,151,186071,1,0,0:0:0:0:
353,93,186424,5,0,0:0:0:0:
290,99,186600,1,0,0:0:0:0:
265,157,186777,1,0,0:0:0:0:
256,192,186954,12,0,189601,0:0:0:0:
126,140,189777,6,0,B|152:180|172:205|224:218|261:190,1,140
347,134,190483,1,0,0:0:0:0:
244,61,190835,5,0,0:0:0:0:
230,186,191188,2,0,B|172:238|132:248|97:231,1,140
126,109,191895,5,0,0:0:0:0:
173,225,192248,1,0,0:0:0:0:
254,129,192601,1,0,0:0:0:0:
303,244,192954,1,0,0:0:0:0:
219,338,193307,1,0,0:0:0:0:
96,309,193660,1,0,0:0:0:0:
173,225,194012,1,0,0:0:0:0:
226,198,195424,6,0,B|290:221|337:191|339:141,1,140
233,79,196130,1,0,0:0:0:0:
107,94,196483,5,0,0:0:0:0:
221,146,196836,2,0,B|220:205|195:233|118:252|118:252|112:248,1,140
26,190,197542,5,0,0:0:0:0:
141,140,197895,1,0,0:0:0:0:
110,262,198248,1,0,0:0:0:0:
169,240,198424,5,0,0:0:0:0:
225,210,198601,1,0,0:0:0:0:
256,155,198777,1,0,0:0:0:0:
259,88,198954,1,0,0:0:0:0:
149,26,199307,1,0,0:0:0:0:
76,128,199660,5,0,0:0:0:0:
68,158,199748,1,0,0:0:0:0:
85,183,199836,1,0,0:0:0:0:
147,179,200012,5,0,0:0:0:0:
169,201,200101,1,0,0:0:0:0:
167,232,200189,1,0,0:0:0:0:
119,273,200365,5,0,0:0:0:0:
55,273,200542,1,0,0:0:0:0:
20,220,200718,1,0,0:0:0:0:
256,192,201071,12,4,203895,0:0:0:0:
118,177,206277,6,0,B|138:209|191:219|192:215,1,70
231,183,206630,1,0,0:0:0:0:
275,138,206807,1,0,0:0:0:0:
332,164,206983,1,0,0:0:0:0:
370,214,207160,1,0,0:0:0:0:
335,266,207336,1,0,0:0:0:0:
273,280,207512,1,0,0:0:0:0:
210,291,207689,6,0,P|139:298|87:225,1,140
103,129,209012,2,0,P|128:100|171:95,1,70
218,111,209365,1,0,0:0:0:0:
259,158,209542,1,0,0:0:0:0:
232,214,209718,1,0,0:0:0:0:
169,224,209895,1,0,0:0:0:0:
116,189,210071,1,0,0:0:0:0:
101,127,210248,6,0,P|110:87|134:86,1,70
196,82,210601,1,0,0:0:0:0:
225,93,210689,1,0,0:0:0:0:
247,114,210777,1,0,0:0:0:0:
270,237,211130,5,0,0:0:0:0:
382,294,211483,6,0,P|436:308|451:283,1,70
473,249,211836,1,0,0:0:0:0:
456,188,212012,1,0,0:0:0:0:
406,148,212189,1,0,0:0:0:0:
343,146,212365,1,0,0:0:0:0:
293,184,212542,1,0,0:0:0:0:
251,227,212718,6,0,P|210:259|180:240,1,70
244,138,213248,6,0,P|207:124|181:144,1,70
172,201,213601,6,0,B|170:246|122:249|121:248,1,70
70,220,213954,1,0,0:0:0:0:
31,170,214130,1,0,0:0:0:0:
46,108,214307,1,0,0:0:0:0:
238,70,214660,5,0,0:0:0:0:
361,135,214836,1,0,0:0:0:0:
267,238,215012,1,0,0:0:0:0:
139,179,215189,1,0,0:0:0:0:
88,48,215365,1,0,0:0:0:0:
366,74,215718,6,0,B|310:74|299:93|299:91,1,70
173,153,216071,1,0,0:0:0:0:
256,192,216248,12,4,218012,0:0:0:0:
372,167,218807,5,0,0:0:0:0:
249,99,218983,1,0,0:0:0:0:
238,239,219160,1,0,0:0:0:0:
371,278,219336,1,0,0:0:0:0:
251,351,219513,1,0,0:0:0:0:
126,288,219689,1,0,0:0:0:0:
145,148,219866,1,0,0:0:0:0:
418,94,220218,6,0,P|470:119|437:189,1,140
217,123,221630,5,0,0:0:0:0:
353,89,221807,1,0,0:0:0:0:
297,217,221983,1,0,0:0:0:0:
435,193,222160,1,0,0:0:0:0:
375,319,222336,1,0,0:0:0:0:
236,332,222512,1,0,0:0:0:0:
136,232,222689,1,0,0:0:0:0:
273,208,222865,1,0,0:0:0:0:
173,108,223042,1,0,0:0:0:0:
311,92,223218,5,0,0:0:0:0:
374,217,223395,2,0,B|333:221|303:243|238:255|240:250,1,140
38,54,224101,6,0,P|25:100|41:122,1,70
170,81,224454,2,0,P|191:109|147:124,1,70
34,164,224807,5,0,0:0:0:0:
157,229,224983,1,0,0:0:0:0:
135,90,225160,1,0,0:0:0:0:
249,169,225336,1,0,0:0:0:0:
357,81,225512,1,0,0:0:0:0:
217,88,225777,6,0,B|163:109|194:205|209:213,1,140
326,287,226307,1,0,0:0:0:0:
451,225,226483,1,0,0:0:0:0:
323,167,226660,1,0,0:0:0:0:
202,238,226836,1,0,0:0:0:0:
51,130,227189,6,0,P|81:76|99:82,1,70
195,147,227542,2,0,P|164:193|151:193,1,70
35,265,227895,1,0,0:0:0:0:
167,309,228071,5,0,0:0:0:0:
289,240,228248,1,0,0:0:0:0:
156,194,228424,1,0,0:0:0:0:
270,113,228601,1,0,0:0:0:0:
256,192,228954,12,4,231424,0:0:0:0:
97,139,231777,6,0,B|111:102|141:87|225:94,1,140
418,290,232483,2,0,B|359:211|318:175|317:174,1,140
63,279,233189,2,0,B|74:196|108:177|151:161,1,140
410,113,233895,1,0,0:0:0:0:
132,151,234248,1,0,0:0:0:0:
346,330,234601,1,0,0:0:0:0:
488,89,234954,1,0,0:0:0:0:
245,229,235307,1,0,0:0:0:0:
33,45,235660,1,0,0:0:0:0:
256,192,236012,12,4,237248,0:0:0:0:
182,154,237601,5,0,0:0:0:0:
453,84,237954,2,0,P|451:132|416:145,1,70
296,154,238307,1,0,0:0:0:0:
31,63,238660,5,0,0:0:0:0:
215,272,239012,1,0,0:0:0:0:
375,42,239365,1,0,0:0:0:0:
102,107,239718,6,0,P|104:164|126:161,1,70
227,217,240071,1,0,0:0:0:0:
364,244,240248,1,0,0:0:0:0:
459,142,240424,1,0,0:0:0:0:
186,77,240777,5,0,0:0:0:0:
61,141,240954,1,0,0:0:0:0:
70,280,241130,1,0,0:0:0:0:
302,123,241483,5,0,0:0:0:0:
181,50,241660,1,0,0:0:0:0:
138,182,241836,1,0,0:0:0:0:
409,114,242189,1,0,0:0:0:0:
71,293,242895,6,0,P|115:329|171:274,1,140
269,183,243424,1,0,0:0:0:0:
128,192,243601,1,0,0:0:0:0:
239,276,243777,1,0,0:0:0:0:
375,241,243954,1,0,0:0:0:0:
445,158,244307,6,0,B|421:123|361:101|307:107,1,140
183,135,244836,1,0,0:0:0:0:
296,216,245012,1,0,0:0:0:0:
159,247,245189,1,0,0:0:0:0:
49,160,245365,1,0,0:0:0:0:
321,95,245718,5,0,0:0:0:0:
437,172,245895,1,0,0:0:0:0:
354,284,246071,1,0,0:0:0:0:
141,101,246424,5,0,0:0:0:0:
53,210,246601,1,0,0:0:0:0:
169,287,246777,1,0,0:0:0:0:
256,192,247130,12,4,248189,0:0:0:0:
103,172,248542,6,0,P|109:133|141:135,1,70
173,159,248895,2,0,P|211:188|228:172,1,70
261,150,249248,1,0,0:0:0:0:
300,121,249424,1,0,0:0:0:0:
347,107,249601,2,0,P|388:99|390:129,1,70
398,166,249954,2,0,P|393:207|362:208,1,70
329,238,250307,5,0,0:0:0:0:
280,242,250483,1,0,0:0:0:0:
231,232,250660,1,0,0:0:0:0:
184,215,250836,2,0,P|134:207|125:182,1,70
106,181,251101,1,0,0:0:0:0:
72,145,251277,1,0,0:0:0:0:
66,96,251454,1,0,0:0:0:0:
106,68,251630,1,0,0:0:0:0:
155,66,251807,1,0,0:0:0:0:
194,95,251983,5,0,0:0:0:0:
219,136,252160,1,0,0:0:0:0:
266,145,252336,1,0,0:0:0:0:
312,129,252512,1,0,0:0:0:0:
342,90,252689,1,0,0:0:0:0:
371,51,252865,1,0,0:0:0:0:
419,44,253042,1,0,0:0:0:0:
459,72,253218,1,0,0:0:0:0:
471,119,253395,5,0,0:0:0:0:
439,156,253571,1,0,0:0:0:0:
392,172,253748,1,0,0:0:0:0:
354,202,253924,1,0,0:0:0:0:
330,245,254101,1,0,0:0:0:0:
306,287,254277,1,0,0:0:0:0:
260,305,254454,1,0,0:0:0:0:
211,296,254630,1,0,0:0:0:0:
166,275,254807,1,0,0:0:0:0:
140,233,254983,5,0,0:0:0:0:
149,184,255160,1,0,0:0:0:0:
190,157,255336,1,0,0:0:0:0:
236,142,255512,1,0,0:0:0:0:
282,156,255689,1,0,0:0:0:0:
319,187,255865,1,0,0:0:0:0:
363,208,256042,1,0,0:0:0:0:
406,184,256218,1,0,0:0:0:0:
431,141,256395,1,0,0:0:0:0:
442,93,256571,5,0,0:0:0:0:
405,59,256748,1,0,0:0:0:0:
356,54,256924,1,0,0:0:0:0:
311,74,257101,1,0,0:0:0:0:
278,110,257277,1,0,0:0:0:0:
267,157,257454,1,0,0:0:0:0:
225,183,257630,1,0,0:0:0:0:
176,176,257807,1,0,0:0:0:0:
133,152,257983,1,0,0:0:0:0:
59,158,258248,6,0,P|31:204|46:231,1,70
82,224,258601,2,0,B|90:263|57:289|56:289,1,70
42,333,258954,2,0,P|82:349|112:328,1,70
128,295,259307,2,0,B|162:264|205:287|206:287,1,70
237,304,259660,1,0,0:0:0:0:
281,324,259836,1,0,0:0:0:0:
327,307,260012,1,0,0:0:0:0:
357,268,260189,1,0,0:0:0:0:
366,220,260365,1,0,0:0:0:0:
341,177,260542,5,0,0:0:0:0:
300,150,260718,2,0,P|259:129|242:140,1,70
