osu file format v12

[General]
AudioFilename: Yuriyurarararayuruyuri Daijiken (TV Size).mp3
AudioLeadIn: 1000
PreviewTime: 51422
Countdown: 0
SampleSet: None
StackLeniency: 0.3
Mode: 3
LetterboxInBreaks: 0
SpecialStyle: 0
WidescreenStoryboard: 1

[Editor]
DistanceSpacing: 1
BeatDivisor: 4
GridSize: 8

[Metadata]
Title:Anime Songs Vol.1
TitleUnicode:Anime Songs Vol.1
Artist:[ M o m o ]
ArtistUnicode:[ M o m o ]
Creator:[ M o m o ]
Version:Yuriyurarararayuruyuri Daijiken
Source:Anime
Tags:Opening Endings
BeatmapID:365833
BeatmapSetID:144765

[Difficulty]
HPDrainRate:5
CircleSize:7
OverallDifficulty:5
ApproachRate:8
SliderMultiplier:1.6
SliderTickRate:1

[Events]
//Background and Video events
0,0,"BG3.jpg",0,0
//Break Periods
//Storyboard Layer 0 (Background)
//Storyboard Layer 1 (Fail)
//Storyboard Layer 2 (Pass)
//Storyboard Layer 3 (Foreground)
//Storyboard Sound Samples
//Background Colour Transformations
3,100,163,162,255

[TimingPoints]
165,342.857142857143,4,3,1,0,1,0
52279,-100,4,3,1,0,0,1
52365,-100,4,3,1,0,0,1
69679,-100,4,3,1,0,0,1
69765,-100,4,3,1,0,0,1
74222,-100,4,3,1,0,0,0
74479,-100,4,3,1,0,0,0

[Colours]
Combo1 : 240,97,55
Combo2 : 240,153,36
SliderBorder : 255,255,255

[HitObjects]
36,192,165,128,0,1536:0:0:0:0:
402,192,165,128,0,250:0:0:0:0:
329,192,250,128,0,336:0:0:0:0:
475,192,250,1,0,0:0:0:0:
256,192,336,128,0,422:0:0:0:0:
402,192,336,1,0,0:0:0:0:
182,192,422,128,0,507:0:0:0:0:
329,192,422,1,0,0:0:0:0:
109,192,507,128,0,593:0:0:0:0:
256,192,507,1,0,0:0:0:0:
256,192,593,128,0,679:0:0:0:0:
329,192,593,1,0,0:0:0:0:
329,192,679,128,0,765:0:0:0:0:
402,192,679,1,0,0:0:0:0:
402,192,765,128,0,850:0:0:0:0:
475,192,765,1,0,0:0:0:0:
475,192,850,128,0,936:0:0:0:0:
329,192,850,1,0,0:0:0:0:
329,192,936,128,0,1022:0:0:0:0:
256,192,936,1,0,0:0:0:0:
256,192,1022,128,0,1107:0:0:0:0:
182,192,1022,1,0,0:0:0:0:
182,192,1107,128,0,1193:0:0:0:0:
109,192,1107,1,0,0:0:0:0:
109,192,1193,128,0,1279:0:0:0:0:
329,192,1279,128,0,1365:0:0:0:0:
182,192,1279,1,0,0:0:0:0:
402,192,1365,128,0,1450:0:0:0:0:
256,192,1365,1,0,0:0:0:0:
475,192,1450,128,0,1536:0:0:0:0:
329,192,1450,1,0,0:0:0:0:
402,192,1536,1,0,0:0:0:0:
109,192,1536,1,0,0:0:0:0:
256,192,1536,1,0,0:0:0:0:
36,192,1879,1,0,0:0:0:0:
256,192,1879,1,0,0:0:0:0:
475,192,1879,1,0,0:0:0:0:
109,192,2050,1,0,0:0:0:0:
402,192,2050,1,0,0:0:0:0:
256,192,2222,1,0,0:0:0:0:
36,192,2222,1,0,0:0:0:0:
475,192,2222,1,0,0:0:0:0:
109,192,2393,1,0,0:0:0:0:
402,192,2393,1,0,0:0:0:0:
256,192,2565,1,0,0:0:0:0:
109,192,2736,1,0,0:0:0:0:
402,192,2736,1,0,0:0:0:0:
256,192,2907,1,0,0:0:0:0:
109,192,3079,1,0,0:0:0:0:
402,192,3079,1,0,0:0:0:0:
256,192,3250,1,0,0:0:0:0:
475,192,3422,1,0,0:0:0:0:
36,192,3422,1,0,0:0:0:0:
109,192,3593,1,0,0:0:0:0:
256,192,3593,1,0,0:0:0:0:
402,192,3593,1,0,0:0:0:0:
36,192,3765,1,0,0:0:0:0:
475,192,3765,1,0,0:0:0:0:
182,192,3936,1,0,0:0:0:0:
329,192,3936,1,0,0:0:0:0:
109,192,4107,1,0,0:0:0:0:
402,192,4107,1,0,0:0:0:0:
475,192,4279,1,0,0:0:0:0:
36,192,4279,1,0,0:0:0:0:
256,192,4279,1,0,0:0:0:0:
256,192,4622,1,0,0:0:0:0:
109,192,4622,1,0,0:0:0:0:
402,192,4622,1,0,0:0:0:0:
182,192,4793,1,0,0:0:0:0:
329,192,4793,1,0,0:0:0:0:
256,192,4965,1,0,0:0:0:0:
475,192,5136,1,0,0:0:0:0:
36,192,5136,1,0,0:0:0:0:
256,192,5307,1,0,0:0:0:0:
36,192,5479,1,0,0:0:0:0:
475,192,5479,1,0,0:0:0:0:
256,192,5650,1,0,0:0:0:0:
36,192,5822,1,0,0:0:0:0:
475,192,5822,1,0,0:0:0:0:
256,192,5993,1,0,0:0:0:0:
109,192,6165,1,0,0:0:0:0:
402,192,6165,1,0,0:0:0:0:
256,192,6336,1,0,0:0:0:0:
36,192,6336,1,0,0:0:0:0:
475,192,6336,1,0,0:0:0:0:
402,192,6507,1,0,0:0:0:0:
109,192,6507,1,0,0:0:0:0:
256,192,6679,1,0,0:0:0:0:
182,192,6679,1,0,0:0:0:0:
329,192,6679,1,0,0:0:0:0:
109,192,6850,1,0,0:0:0:0:
402,192,6850,1,0,0:0:0:0:
475,192,7022,1,0,0:0:0:0:
36,192,7022,1,0,0:0:0:0:
256,192,7022,1,0,0:0:0:0:
256,192,7365,1,0,0:0:0:0:
475,192,7365,1,0,0:0:0:0:
36,192,7365,1,0,0:0:0:0:
109,192,7536,1,0,0:0:0:0:
402,192,7536,1,0,0:0:0:0:
256,192,7707,1,0,0:0:0:0:
329,192,7879,1,0,0:0:0:0:
182,192,7879,1,0,0:0:0:0:
256,192,8050,1,0,0:0:0:0:
182,192,8222,1,0,0:0:0:0:
329,192,8222,1,0,0:0:0:0:
256,192,8393,1,0,0:0:0:0:
182,192,8565,1,0,0:0:0:0:
329,192,8565,1,0,0:0:0:0:
256,192,8736,1,0,0:0:0:0:
109,192,8907,1,0,0:0:0:0:
402,192,8907,1,0,0:0:0:0:
475,192,9079,1,0,0:0:0:0:
36,192,9079,1,0,0:0:0:0:
256,192,9079,1,0,0:0:0:0:
182,192,9250,1,0,0:0:0:0:
329,192,9250,1,0,0:0:0:0:
256,192,9422,1,0,0:0:0:0:
109,192,9422,1,0,0:0:0:0:
402,192,9422,1,0,0:0:0:0:
475,192,9593,1,0,0:0:0:0:
36,192,9593,1,0,0:0:0:0:
256,192,9765,1,0,0:0:0:0:
182,192,9765,1,0,0:0:0:0:
329,192,9765,1,0,0:0:0:0:
109,192,10107,1,0,0:0:0:0:
256,192,10107,1,0,0:0:0:0:
402,192,10107,1,0,0:0:0:0:
475,192,10450,1,0,0:0:0:0:
329,192,10450,1,0,0:0:0:0:
182,192,10622,1,0,0:0:0:0:
36,192,10622,1,0,0:0:0:0:
109,192,10965,1,0,0:0:0:0:
402,192,10965,1,0,0:0:0:0:
256,192,10965,1,0,0:0:0:0:
475,192,11307,1,0,0:0:0:0:
182,192,11307,1,0,0:0:0:0:
36,192,11307,1,0,0:0:0:0:
475,192,11479,1,0,0:0:0:0:
109,192,11479,1,0,0:0:0:0:
256,192,11479,1,0,0:0:0:0:
475,192,11650,1,0,0:0:0:0:
329,192,11650,1,0,0:0:0:0:
182,192,11650,1,0,0:0:0:0:
475,192,11822,1,0,0:0:0:0:
402,192,11822,1,0,0:0:0:0:
256,192,11822,1,0,0:0:0:0:
36,192,11907,1,0,0:0:0:0:
329,192,11993,1,0,0:0:0:0:
182,192,11993,1,0,0:0:0:0:
36,192,12079,1,0,0:0:0:0:
475,192,12165,1,0,0:0:0:0:
256,192,12165,1,0,0:0:0:0:
402,192,12165,1,0,0:0:0:0:
329,192,12336,1,0,0:0:0:0:
36,192,12336,1,0,0:0:0:0:
182,192,12507,1,0,0:0:0:0:
256,192,12507,1,0,0:0:0:0:
36,192,12507,1,0,0:0:0:0:
475,192,12507,128,0,13879:0:0:0:0:
402,192,12507,128,0,13365:0:0:0:0:
36,192,12850,1,0,0:0:0:0:
329,192,13022,128,0,13365:0:0:0:0:
182,192,13022,1,0,0:0:0:0:
256,192,13193,128,0,13365:0:0:0:0:
36,192,13193,1,0,0:0:0:0:
182,192,13193,1,0,0:0:0:0:
182,192,13365,1,0,0:0:0:0:
36,192,13536,1,0,0:0:0:0:
182,192,13707,1,0,0:0:0:0:
329,192,13707,1,0,0:0:0:0:
109,192,13879,1,0,0:0:0:0:
256,192,13879,1,0,0:0:0:0:
402,192,13879,128,0,15250:0:0:0:0:
36,192,13879,128,0,14736:0:0:0:0:
329,192,13879,128,0,14736:0:0:0:0:
475,192,14222,1,0,0:0:0:0:
256,192,14393,128,0,14736:0:0:0:0:
109,192,14393,1,0,0:0:0:0:
182,192,14565,128,0,14736:0:0:0:0:
475,192,14565,1,0,0:0:0:0:
109,192,14565,1,0,0:0:0:0:
109,192,14736,1,0,0:0:0:0:
475,192,14907,1,0,0:0:0:0:
329,192,15079,1,0,0:0:0:0:
182,192,15165,1,0,0:0:0:0:
36,192,15250,1,0,0:0:0:0:
475,192,15250,128,0,16622:0:0:0:0:
329,192,15250,1,0,0:0:0:0:
109,192,15422,1,0,0:0:0:0:
256,192,15422,1,0,0:0:0:0:
402,192,15593,1,0,0:0:0:0:
36,192,15765,1,0,0:0:0:0:
256,192,15850,1,0,0:0:0:0:
402,192,15936,1,0,0:0:0:0:
109,192,15936,1,0,0:0:0:0:
182,192,16107,1,0,0:0:0:0:
36,192,16107,1,0,0:0:0:0:
402,192,16279,1,0,0:0:0:0:
109,192,16450,1,0,0:0:0:0:
256,192,16450,1,0,0:0:0:0:
402,192,16622,1,0,0:0:0:0:
36,192,16622,1,0,0:0:0:0:
329,192,16622,128,0,16965:0:0:0:0:
182,192,16622,128,0,16965:0:0:0:0:
256,192,16965,128,0,17307:0:0:0:0:
402,192,16965,128,0,17307:0:0:0:0:
109,192,16965,1,0,0:0:0:0:
329,192,17307,128,0,17650:0:0:0:0:
475,192,17307,128,0,17650:0:0:0:0:
182,192,17307,1,0,0:0:0:0:
402,192,17650,128,0,17993:0:0:0:0:
256,192,17650,1,0,0:0:0:0:
329,192,17993,1,0,0:0:0:0:
475,192,17993,1,0,0:0:0:0:
36,192,17993,128,0,19365:0:0:0:0:
109,192,17993,128,0,18850:0:0:0:0:
182,192,18507,128,0,18850:0:0:0:0:
256,192,18507,1,0,0:0:0:0:
475,192,18679,128,0,18850:0:0:0:0:
402,192,18679,1,0,0:0:0:0:
256,192,18850,1,0,0:0:0:0:
402,192,19022,128,0,19365:0:0:0:0:
329,192,19022,1,0,0:0:0:0:
475,192,19022,1,0,0:0:0:0:
109,192,19022,1,0,0:0:0:0:
256,192,19193,1,0,0:0:0:0:
109,192,19365,1,0,0:0:0:0:
329,192,19365,1,0,0:0:0:0:
475,192,19365,128,0,20736:0:0:0:0:
182,192,19365,128,0,20222:0:0:0:0:
256,192,19879,128,0,20222:0:0:0:0:
109,192,19879,1,0,0:0:0:0:
402,192,20050,128,0,20222:0:0:0:0:
36,192,20050,1,0,0:0:0:0:
109,192,20222,1,0,0:0:0:0:
329,192,20393,1,0,0:0:0:0:
36,192,20393,1,0,0:0:0:0:
109,192,20565,1,0,0:0:0:0:
256,192,20650,1,0,0:0:0:0:
402,192,20736,1,0,0:0:0:0:
36,192,20736,128,0,21936:0:0:0:0:
182,192,20907,1,0,0:0:0:0:
329,192,20907,1,0,0:0:0:0:
109,192,21079,128,0,21936:0:0:0:0:
256,192,21079,1,0,0:0:0:0:
475,192,21079,1,0,0:0:0:0:
402,192,21079,1,0,0:0:0:0:
329,192,21250,1,0,0:0:0:0:
182,192,21336,1,0,0:0:0:0:
475,192,21422,1,0,0:0:0:0:
402,192,21422,1,0,0:0:0:0:
329,192,21593,1,0,0:0:0:0:
182,192,21593,1,0,0:0:0:0:
402,192,21765,1,0,0:0:0:0:
475,192,21765,1,0,0:0:0:0:
256,192,21765,1,0,0:0:0:0:
329,192,21936,128,0,22107:0:0:0:0:
182,192,21936,1,0,0:0:0:0:
402,192,22107,128,0,22279:0:0:0:0:
256,192,22107,1,0,0:0:0:0:
475,192,22279,128,0,22450:0:0:0:0:
329,192,22279,1,0,0:0:0:0:
36,192,22450,128,0,23136:0:0:0:0:
402,192,22450,1,0,0:0:0:0:
109,192,22450,1,0,0:0:0:0:
256,192,22450,1,0,0:0:0:0:
329,192,22622,1,0,0:0:0:0:
182,192,22793,128,0,23136:0:0:0:0:
109,192,22793,1,0,0:0:0:0:
402,192,22793,1,0,0:0:0:0:
475,192,22793,1,0,0:0:0:0:
256,192,23136,1,0,0:0:0:0:
109,192,23136,128,0,23479:0:0:0:0:
475,192,23222,1,0,0:0:0:0:
329,192,23307,128,0,23479:0:0:0:0:
402,192,23307,1,0,0:0:0:0:
475,192,23393,1,0,0:0:0:0:
182,192,23479,1,0,0:0:0:0:
36,192,23479,128,0,23822:0:0:0:0:
402,192,23479,1,0,0:0:0:0:
402,192,23650,128,0,23822:0:0:0:0:
256,192,23650,1,0,0:0:0:0:
109,192,23822,128,0,24165:0:0:0:0:
329,192,23822,1,0,0:0:0:0:
182,192,23822,1,0,0:0:0:0:
475,192,23993,128,0,24850:0:0:0:0:
256,192,23993,1,0,0:0:0:0:
329,192,24165,1,0,0:0:0:0:
402,192,24165,1,0,0:0:0:0:
36,192,24507,1,0,0:0:0:0:
182,192,24507,1,0,0:0:0:0:
402,192,24507,1,0,0:0:0:0:
402,192,24850,1,0,0:0:0:0:
256,192,24850,128,0,25022:0:0:0:0:
36,192,24850,1,0,0:0:0:0:
329,192,25022,128,0,25193:0:0:0:0:
109,192,25022,1,0,0:0:0:0:
402,192,25193,128,0,25365:0:0:0:0:
182,192,25193,1,0,0:0:0:0:
36,192,25193,1,0,0:0:0:0:
475,192,25365,128,0,26222:0:0:0:0:
256,192,25365,1,0,0:0:0:0:
109,192,25536,1,0,0:0:0:0:
329,192,25536,1,0,0:0:0:0:
402,192,25879,1,0,0:0:0:0:
36,192,25879,1,0,0:0:0:0:
182,192,25879,1,0,0:0:0:0:
402,192,26222,128,0,26565:0:0:0:0:
36,192,26222,1,0,0:0:0:0:
182,192,26222,1,0,0:0:0:0:
256,192,26393,128,0,26565:0:0:0:0:
329,192,26565,128,0,26907:0:0:0:0:
109,192,26565,1,0,0:0:0:0:
182,192,26565,1,0,0:0:0:0:
475,192,26736,128,0,26907:0:0:0:0:
402,192,26907,128,0,27250:0:0:0:0:
36,192,26907,1,0,0:0:0:0:
256,192,26907,1,0,0:0:0:0:
182,192,27079,128,0,27250:0:0:0:0:
256,192,27250,128,0,27593:0:0:0:0:
329,192,27250,1,0,0:0:0:0:
36,192,27250,1,0,0:0:0:0:
109,192,27422,128,0,27593:0:0:0:0:
182,192,27593,1,0,0:0:0:0:
36,192,27593,1,0,0:0:0:0:
475,192,27936,1,0,0:0:0:0:
36,192,27936,1,0,0:0:0:0:
256,192,27936,1,0,0:0:0:0:
36,192,28107,1,0,0:0:0:0:
256,192,28107,1,0,0:0:0:0:
475,192,28107,1,0,0:0:0:0:
109,192,28450,1,0,0:0:0:0:
402,192,28450,1,0,0:0:0:0:
256,192,28450,128,0,28965:0:0:0:0:
475,192,28622,1,0,0:0:0:0:
36,192,28622,1,0,0:0:0:0:
182,192,28965,1,0,0:0:0:0:
329,192,28965,1,0,0:0:0:0:
36,192,29050,1,0,0:0:0:0:
109,192,29222,1,0,0:0:0:0:
256,192,29307,1,0,0:0:0:0:
36,192,29307,1,0,0:0:0:0:
475,192,29307,1,0,0:0:0:0:
329,192,29479,1,0,0:0:0:0:
402,192,29650,1,0,0:0:0:0:
109,192,29650,1,0,0:0:0:0:
256,192,29822,1,0,0:0:0:0:
36,192,29993,1,0,0:0:0:0:
182,192,29993,1,0,0:0:0:0:
475,192,29993,1,0,0:0:0:0:
329,192,30165,1,0,0:0:0:0:
475,192,30336,1,0,0:0:0:0:
109,192,30336,1,0,0:0:0:0:
256,192,30507,1,0,0:0:0:0:
36,192,30679,1,0,0:0:0:0:
475,192,30679,1,0,0:0:0:0:
402,192,30679,1,0,0:0:0:0:
182,192,30850,1,0,0:0:0:0:
329,192,31022,1,0,0:0:0:0:
109,192,31022,1,0,0:0:0:0:
475,192,31193,1,0,0:0:0:0:
256,192,31365,1,0,0:0:0:0:
36,192,31365,1,0,0:0:0:0:
182,192,31365,1,0,0:0:0:0:
402,192,31536,1,0,0:0:0:0:
109,192,31707,1,0,0:0:0:0:
329,192,31707,1,0,0:0:0:0:
475,192,31707,1,0,0:0:0:0:
182,192,31707,128,0,31879:0:0:0:0:
36,192,31879,1,0,0:0:0:0:
256,192,31879,128,0,32050:0:0:0:0:
109,192,32050,1,0,0:0:0:0:
329,192,32050,128,0,32222:0:0:0:0:
402,192,32222,128,0,32393:0:0:0:0:
182,192,32222,1,0,0:0:0:0:
36,192,32393,1,0,0:0:0:0:
475,192,32393,128,0,32736:0:0:0:0:
109,192,32393,1,0,0:0:0:0:
329,192,32565,128,0,32736:0:0:0:0:
182,192,32565,1,0,0:0:0:0:
256,192,32736,1,0,0:0:0:0:
36,192,32736,1,0,0:0:0:0:
402,192,32736,128,0,32907:0:0:0:0:
329,192,32907,1,0,0:0:0:0:
256,192,33079,1,0,0:0:0:0:
475,192,33079,128,0,33765:0:0:0:0:
36,192,33079,1,0,0:0:0:0:
109,192,33250,1,0,0:0:0:0:
329,192,33422,128,0,33593:0:0:0:0:
256,192,33422,1,0,0:0:0:0:
36,192,33422,1,0,0:0:0:0:
182,192,33422,1,0,0:0:0:0:
402,192,33593,128,0,33765:0:0:0:0:
109,192,33593,1,0,0:0:0:0:
36,192,33765,1,0,0:0:0:0:
182,192,33765,1,0,0:0:0:0:
109,192,33936,1,0,0:0:0:0:
256,192,33936,1,0,0:0:0:0:
402,192,33936,1,0,0:0:0:0:
109,192,34107,1,0,0:0:0:0:
256,192,34107,1,0,0:0:0:0:
402,192,34107,1,0,0:0:0:0:
109,192,34279,1,0,0:0:0:0:
256,192,34279,1,0,0:0:0:0:
402,192,34279,1,0,0:0:0:0:
36,192,34450,1,0,0:0:0:0:
475,192,34450,1,0,0:0:0:0:
256,192,34622,1,0,0:0:0:0:
109,192,34707,1,0,0:0:0:0:
256,192,34793,1,0,0:0:0:0:
402,192,34793,1,0,0:0:0:0:
475,192,34793,1,0,0:0:0:0:
182,192,34965,1,0,0:0:0:0:
36,192,35136,1,0,0:0:0:0:
329,192,35136,1,0,0:0:0:0:
109,192,35307,1,0,0:0:0:0:
256,192,35479,1,0,0:0:0:0:
475,192,35479,1,0,0:0:0:0:
36,192,35479,1,0,0:0:0:0:
329,192,35650,1,0,0:0:0:0:
402,192,35822,1,0,0:0:0:0:
475,192,35822,1,0,0:0:0:0:
109,192,35993,1,0,0:0:0:0:
256,192,36165,1,0,0:0:0:0:
36,192,36165,1,0,0:0:0:0:
475,192,36165,1,0,0:0:0:0:
109,192,36336,1,0,0:0:0:0:
329,192,36507,1,0,0:0:0:0:
402,192,36507,1,0,0:0:0:0:
36,192,36679,1,0,0:0:0:0:
256,192,36850,1,0,0:0:0:0:
109,192,37022,1,0,0:0:0:0:
475,192,37193,128,0,37365:0:0:0:0:
402,192,37193,1,0,0:0:0:0:
329,192,37193,1,0,0:0:0:0:
402,192,37365,128,0,37536:0:0:0:0:
256,192,37365,1,0,0:0:0:0:
329,192,37536,128,0,37707:0:0:0:0:
182,192,37536,1,0,0:0:0:0:
36,192,37536,1,0,0:0:0:0:
402,192,37707,128,0,37879:0:0:0:0:
109,192,37707,1,0,0:0:0:0:
329,192,37879,128,0,38050:0:0:0:0:
182,192,37879,1,0,0:0:0:0:
475,192,37879,1,0,0:0:0:0:
256,192,38050,128,0,38222:0:0:0:0:
109,192,38050,1,0,0:0:0:0:
182,192,38222,128,0,38393:0:0:0:0:
36,192,38222,1,0,0:0:0:0:
475,192,38222,1,0,0:0:0:0:
109,192,38393,128,0,38565:0:0:0:0:
329,192,38393,1,0,0:0:0:0:
36,192,38565,1,0,0:0:0:0:
182,192,38565,1,0,0:0:0:0:
475,192,38565,128,0,38907:0:0:0:0:
402,192,38565,1,0,0:0:0:0:
256,192,38736,1,0,0:0:0:0:
329,192,38907,128,0,39250:0:0:0:0:
36,192,38907,1,0,0:0:0:0:
402,192,38907,1,0,0:0:0:0:
182,192,39079,128,0,39250:0:0:0:0:
109,192,39079,1,0,0:0:0:0:
36,192,39250,1,0,0:0:0:0:
475,192,39250,1,0,0:0:0:0:
109,192,39422,1,0,0:0:0:0:
402,192,39422,1,0,0:0:0:0:
256,192,39422,1,0,0:0:0:0:
109,192,39593,1,0,0:0:0:0:
402,192,39593,1,0,0:0:0:0:
256,192,39593,1,0,0:0:0:0:
109,192,39765,1,0,0:0:0:0:
256,192,39765,1,0,0:0:0:0:
402,192,39765,1,0,0:0:0:0:
36,192,39936,128,0,41307:0:0:0:0:
109,192,39936,128,0,40279:0:0:0:0:
329,192,39936,128,0,40279:0:0:0:0:
402,192,40279,128,0,40450:0:0:0:0:
256,192,40279,1,0,0:0:0:0:
329,192,40450,128,0,40793:0:0:0:0:
475,192,40450,128,0,40793:0:0:0:0:
182,192,40450,1,0,0:0:0:0:
109,192,40622,1,0,0:0:0:0:
256,192,40622,1,0,0:0:0:0:
402,192,40793,128,0,41307:0:0:0:0:
109,192,40793,128,0,41307:0:0:0:0:
182,192,40793,1,0,0:0:0:0:
256,192,40965,1,0,0:0:0:0:
475,192,40965,1,0,0:0:0:0:
329,192,41136,1,0,0:0:0:0:
256,192,41307,128,0,42679:0:0:0:0:
475,192,41307,1,0,0:0:0:0:
182,192,41307,128,0,41650:0:0:0:0:
329,192,41650,1,0,0:0:0:0:
109,192,41650,128,0,41822:0:0:0:0:
36,192,41822,128,0,42165:0:0:0:0:
475,192,41822,1,0,0:0:0:0:
329,192,41993,128,0,42679:0:0:0:0:
182,192,41993,1,0,0:0:0:0:
402,192,41993,1,0,0:0:0:0:
109,192,42165,1,0,0:0:0:0:
475,192,42336,128,0,42679:0:0:0:0:
182,192,42336,128,0,42679:0:0:0:0:
402,192,42336,1,0,0:0:0:0:
109,192,42507,1,0,0:0:0:0:
402,192,42679,128,0,44050:0:0:0:0:
36,192,42679,128,0,43022:0:0:0:0:
109,192,42850,1,0,0:0:0:0:
256,192,43022,128,0,43707:0:0:0:0:
182,192,43022,1,0,0:0:0:0:
109,192,43193,128,0,43707:0:0:0:0:
329,192,43193,1,0,0:0:0:0:
475,192,43365,128,0,44050:0:0:0:0:
182,192,43365,1,0,0:0:0:0:
36,192,43536,1,0,0:0:0:0:
329,192,43707,1,0,0:0:0:0:
182,192,43707,128,0,44050:0:0:0:0:
36,192,43879,1,0,0:0:0:0:
329,192,44050,1,0,0:0:0:0:
36,192,44050,128,0,45422:0:0:0:0:
109,192,44050,1,0,0:0:0:0:
256,192,44050,128,0,44393:0:0:0:0:
329,192,44222,128,0,44393:0:0:0:0:
109,192,44393,128,0,44907:0:0:0:0:
182,192,44565,1,0,0:0:0:0:
402,192,44565,128,0,44907:0:0:0:0:
256,192,44736,1,0,0:0:0:0:
329,192,44736,128,0,45422:0:0:0:0:
182,192,44907,1,0,0:0:0:0:
256,192,45079,1,0,0:0:0:0:
475,192,45079,128,0,45422:0:0:0:0:
182,192,45250,1,0,0:0:0:0:
109,192,45250,128,0,45422:0:0:0:0:
402,192,45422,128,0,46793:0:0:0:0:
256,192,45422,128,0,45765:0:0:0:0:
182,192,45593,1,0,0:0:0:0:
109,192,45765,1,0,0:0:0:0:
329,192,45765,128,0,46279:0:0:0:0:
36,192,45936,1,0,0:0:0:0:
182,192,45936,128,0,46279:0:0:0:0:
109,192,46107,1,0,0:0:0:0:
475,192,46107,128,0,46793:0:0:0:0:
256,192,46279,128,0,46793:0:0:0:0:
329,192,46450,1,0,0:0:0:0:
109,192,46450,1,0,0:0:0:0:
36,192,46622,128,0,46793:0:0:0:0:
329,192,46793,128,0,48165:0:0:0:0:
182,192,46793,128,0,46965:0:0:0:0:
109,192,46965,128,0,47136:0:0:0:0:
475,192,47136,128,0,47479:0:0:0:0:
36,192,47136,128,0,47307:0:0:0:0:
256,192,47307,128,0,47479:0:0:0:0:
109,192,47479,128,0,48165:0:0:0:0:
182,192,47479,1,0,0:0:0:0:
402,192,47479,128,0,47650:0:0:0:0:
36,192,47650,1,0,0:0:0:0:
475,192,47650,128,0,47822:0:0:0:0:
256,192,47822,128,0,48165:0:0:0:0:
182,192,47822,1,0,0:0:0:0:
402,192,47822,128,0,47993:0:0:0:0:
36,192,47993,128,0,48165:0:0:0:0:
182,192,48165,1,0,0:0:0:0:
475,192,48165,1,0,0:0:0:0:
475,192,48507,1,0,0:0:0:0:
256,192,48507,1,0,0:0:0:0:
36,192,48507,1,0,0:0:0:0:
256,192,48679,1,0,0:0:0:0:
475,192,48679,1,0,0:0:0:0:
36,192,48679,1,0,0:0:0:0:
475,192,48850,1,0,0:0:0:0:
256,192,48850,1,0,0:0:0:0:
36,192,48850,1,0,0:0:0:0:
256,192,49022,1,0,0:0:0:0:
475,192,49022,1,0,0:0:0:0:
36,192,49022,1,0,0:0:0:0:
256,192,49193,1,0,0:0:0:0:
475,192,49193,1,0,0:0:0:0:
36,192,49193,1,0,0:0:0:0:
475,192,49365,1,0,0:0:0:0:
256,192,49365,1,0,0:0:0:0:
36,192,49365,1,0,0:0:0:0:
182,192,49536,128,0,50907:0:0:0:0:
329,192,49536,128,0,50907:0:0:0:0:
475,192,50222,128,0,50907:0:0:0:0:
36,192,50222,128,0,50907:0:0:0:0:
256,192,50907,1,0,0:0:0:0:
475,192,52279,128,0,55022:0:0:0:0:
36,192,52279,128,0,54507:0:0:0:0:
109,192,52279,1,0,0:0:0:0:
256,192,52279,1,0,0:0:0:0:
402,192,52279,1,0,0:0:0:0:
182,192,52622,1,0,0:0:0:0:
329,192,52622,1,0,0:0:0:0:
402,192,52793,128,0,53136:0:0:0:0:
109,192,52793,1,0,0:0:0:0:
256,192,52965,1,0,0:0:0:0:
329,192,53136,128,0,53650:0:0:0:0:
182,192,53136,1,0,0:0:0:0:
182,192,53307,128,0,53650:0:0:0:0:
109,192,53307,1,0,0:0:0:0:
256,192,53479,128,0,53650:0:0:0:0:
109,192,53650,128,0,54336:0:0:0:0:
402,192,53650,1,0,0:0:0:0:
182,192,53993,1,0,0:0:0:0:
329,192,53993,1,0,0:0:0:0:
402,192,54165,128,0,54507:0:0:0:0:
256,192,54165,1,0,0:0:0:0:
256,192,54336,128,0,54507:0:0:0:0:
182,192,54336,1,0,0:0:0:0:
329,192,54507,128,0,54679:0:0:0:0:
109,192,54507,1,0,0:0:0:0:
182,192,54679,128,0,54850:0:0:0:0:
36,192,54679,1,0,0:0:0:0:
256,192,54679,1,0,0:0:0:0:
36,192,54850,128,0,55022:0:0:0:0:
109,192,54850,1,0,0:0:0:0:
402,192,55022,1,0,0:0:0:0:
256,192,55022,1,0,0:0:0:0:
109,192,55022,128,0,56565:0:0:0:0:
329,192,55022,128,0,57422:0:0:0:0:
36,192,55365,1,0,0:0:0:0:
182,192,55365,1,0,0:0:0:0:
475,192,55365,1,0,0:0:0:0:
256,192,55536,1,0,0:0:0:0:
402,192,55536,128,0,55879:0:0:0:0:
36,192,55707,1,0,0:0:0:0:
182,192,55879,128,0,56222:0:0:0:0:
475,192,55879,1,0,0:0:0:0:
256,192,56050,128,0,56222:0:0:0:0:
402,192,56050,1,0,0:0:0:0:
475,192,56222,128,0,56393:0:0:0:0:
36,192,56222,1,0,0:0:0:0:
402,192,56393,128,0,57250:0:0:0:0:
182,192,56393,1,0,0:0:0:0:
36,192,56565,1,0,0:0:0:0:
256,192,56736,1,0,0:0:0:0:
475,192,56736,1,0,0:0:0:0:
182,192,56736,1,0,0:0:0:0:
36,192,56907,1,0,0:0:0:0:
182,192,57079,1,0,0:0:0:0:
256,192,57079,1,0,0:0:0:0:
109,192,57250,1,0,0:0:0:0:
36,192,57422,1,0,0:0:0:0:
256,192,57422,1,0,0:0:0:0:
475,192,57593,1,0,0:0:0:0:
109,192,57593,1,0,0:0:0:0:
256,192,57679,1,0,0:0:0:0:
329,192,57679,1,0,0:0:0:0:
36,192,57765,1,0,0:0:0:0:
475,192,57765,1,0,0:0:0:0:
109,192,57765,128,0,60507:0:0:0:0:
402,192,57765,128,0,58450:0:0:0:0:
182,192,57765,1,0,0:0:0:0:
329,192,58107,1,0,0:0:0:0:
256,192,58107,1,0,0:0:0:0:
36,192,58107,1,0,0:0:0:0:
182,192,58279,1,0,0:0:0:0:
329,192,58450,128,0,59136:0:0:0:0:
256,192,58450,1,0,0:0:0:0:
475,192,58450,1,0,0:0:0:0:
182,192,58622,1,0,0:0:0:0:
36,192,58793,1,0,0:0:0:0:
256,192,58793,1,0,0:0:0:0:
475,192,58793,1,0,0:0:0:0:
402,192,58965,1,0,0:0:0:0:
256,192,59136,128,0,59822:0:0:0:0:
475,192,59136,1,0,0:0:0:0:
182,192,59136,1,0,0:0:0:0:
402,192,59307,1,0,0:0:0:0:
475,192,59479,128,0,59822:0:0:0:0:
329,192,59479,1,0,0:0:0:0:
36,192,59479,1,0,0:0:0:0:
182,192,59479,1,0,0:0:0:0:
402,192,59650,1,0,0:0:0:0:
182,192,59822,128,0,60165:0:0:0:0:
329,192,59822,1,0,0:0:0:0:
402,192,59993,1,0,0:0:0:0:
36,192,60165,128,0,60507:0:0:0:0:
402,192,60165,128,0,60507:0:0:0:0:
475,192,60165,1,0,0:0:0:0:
256,192,60165,1,0,0:0:0:0:
329,192,60336,1,0,0:0:0:0:
182,192,60336,1,0,0:0:0:0:
256,192,60422,1,0,0:0:0:0:
475,192,60507,128,0,61879:0:0:0:0:
182,192,60507,1,0,0:0:0:0:
329,192,60507,128,0,60679:0:0:0:0:
256,192,60679,128,0,60850:0:0:0:0:
402,192,60850,128,0,61707:0:0:0:0:
329,192,60850,1,0,0:0:0:0:
109,192,60850,1,0,0:0:0:0:
36,192,61022,128,0,61707:0:0:0:0:
182,192,61022,1,0,0:0:0:0:
329,192,61193,1,0,0:0:0:0:
109,192,61193,1,0,0:0:0:0:
182,192,61365,1,0,0:0:0:0:
256,192,61365,1,0,0:0:0:0:
109,192,61536,1,0,0:0:0:0:
182,192,61707,1,0,0:0:0:0:
256,192,61879,1,0,0:0:0:0:
329,192,61879,128,0,62050:0:0:0:0:
109,192,62050,128,0,62222:0:0:0:0:
475,192,62222,128,0,62393:0:0:0:0:
36,192,62222,1,0,0:0:0:0:
182,192,62222,1,0,0:0:0:0:
402,192,62222,1,0,0:0:0:0:
402,192,62393,128,0,62736:0:0:0:0:
256,192,62393,128,0,62736:0:0:0:0:
329,192,62393,1,0,0:0:0:0:
36,192,62565,128,0,62736:0:0:0:0:
109,192,62565,1,0,0:0:0:0:
182,192,62650,1,0,0:0:0:0:
109,192,62736,128,0,63079:0:0:0:0:
329,192,62736,1,0,0:0:0:0:
182,192,62822,1,0,0:0:0:0:
475,192,62907,128,0,63079:0:0:0:0:
256,192,62907,1,0,0:0:0:0:
402,192,62993,1,0,0:0:0:0:
329,192,63079,128,0,63250:0:0:0:0:
256,192,63079,1,0,0:0:0:0:
182,192,63165,1,0,0:0:0:0:
256,192,63250,128,0,64622:0:0:0:0:
36,192,63250,1,0,0:0:0:0:
109,192,63250,1,0,0:0:0:0:
402,192,63250,128,0,64793:0:0:0:0:
182,192,63422,1,0,0:0:0:0:
109,192,63593,1,0,0:0:0:0:
36,192,63593,1,0,0:0:0:0:
475,192,63593,1,0,0:0:0:0:
329,192,63765,128,0,64107:0:0:0:0:
182,192,63765,1,0,0:0:0:0:
475,192,63936,1,0,0:0:0:0:
36,192,63936,1,0,0:0:0:0:
109,192,64107,128,0,64450:0:0:0:0:
182,192,64107,1,0,0:0:0:0:
36,192,64279,128,0,64450:0:0:0:0:
475,192,64279,1,0,0:0:0:0:
329,192,64450,128,0,64622:0:0:0:0:
182,192,64450,1,0,0:0:0:0:
475,192,64622,128,0,65479:0:0:0:0:
36,192,64622,128,0,65993:0:0:0:0:
109,192,64793,1,0,0:0:0:0:
182,192,64965,1,0,0:0:0:0:
329,192,64965,1,0,0:0:0:0:
402,192,65136,128,0,65479:0:0:0:0:
256,192,65136,1,0,0:0:0:0:
182,192,65307,1,0,0:0:0:0:
329,192,65307,1,0,0:0:0:0:
109,192,65479,128,0,65822:0:0:0:0:
256,192,65479,1,0,0:0:0:0:
329,192,65650,128,0,65822:0:0:0:0:
182,192,65650,1,0,0:0:0:0:
475,192,65650,1,0,0:0:0:0:
256,192,65822,128,0,65993:0:0:0:0:
475,192,65822,128,0,65993:0:0:0:0:
402,192,65822,1,0,0:0:0:0:
402,192,65993,128,0,67193:0:0:0:0:
182,192,65993,128,0,68393:0:0:0:0:
329,192,65993,1,0,0:0:0:0:
109,192,66165,1,0,0:0:0:0:
256,192,66336,1,0,0:0:0:0:
36,192,66336,1,0,0:0:0:0:
475,192,66507,128,0,66850:0:0:0:0:
329,192,66507,1,0,0:0:0:0:
109,192,66679,1,0,0:0:0:0:
256,192,66679,1,0,0:0:0:0:
36,192,66850,128,0,67193:0:0:0:0:
329,192,66850,1,0,0:0:0:0:
109,192,67022,128,0,67193:0:0:0:0:
256,192,67022,1,0,0:0:0:0:
329,192,67193,128,0,67365:0:0:0:0:
475,192,67193,1,0,0:0:0:0:
256,192,67365,128,0,68222:0:0:0:0:
402,192,67365,1,0,0:0:0:0:
475,192,67536,1,0,0:0:0:0:
36,192,67707,1,0,0:0:0:0:
402,192,67707,1,0,0:0:0:0:
329,192,67707,1,0,0:0:0:0:
475,192,67879,1,0,0:0:0:0:
109,192,68050,1,0,0:0:0:0:
36,192,68050,128,0,68393:0:0:0:0:
402,192,68050,1,0,0:0:0:0:
329,192,68222,128,0,68393:0:0:0:0:
475,192,68393,128,0,68736:0:0:0:0:
109,192,68393,1,0,0:0:0:0:
402,192,68565,1,0,0:0:0:0:
329,192,68650,1,0,0:0:0:0:
36,192,68736,128,0,69422:0:0:0:0:
109,192,68736,128,0,69422:0:0:0:0:
256,192,68736,128,0,71479:0:0:0:0:
182,192,68736,1,0,0:0:0:0:
402,192,68736,1,0,0:0:0:0:
329,192,68907,1,0,0:0:0:0:
475,192,69079,1,0,0:0:0:0:
402,192,69079,1,0,0:0:0:0:
182,192,69079,1,0,0:0:0:0:
329,192,69422,128,0,70107:0:0:0:0:
402,192,69422,128,0,70107:0:0:0:0:
475,192,69422,1,0,0:0:0:0:
182,192,69593,1,0,0:0:0:0:
109,192,69765,1,0,0:0:0:0:
475,192,69765,1,0,0:0:0:0:
36,192,69936,1,0,0:0:0:0:
182,192,70107,128,0,70450:0:0:0:0:
109,192,70107,1,0,0:0:0:0:
475,192,70107,1,0,0:0:0:0:
36,192,70279,1,0,0:0:0:0:
36,192,70450,128,0,70793:0:0:0:0:
109,192,70450,1,0,0:0:0:0:
475,192,70450,1,0,0:0:0:0:
402,192,70450,1,0,0:0:0:0:
329,192,70622,1,0,0:0:0:0:
402,192,70793,128,0,71136:0:0:0:0:
475,192,70793,1,0,0:0:0:0:
109,192,70793,1,0,0:0:0:0:
182,192,70965,1,0,0:0:0:0:
109,192,71136,128,0,71479:0:0:0:0:
36,192,71136,1,0,0:0:0:0:
329,192,71136,1,0,0:0:0:0:
475,192,71307,1,0,0:0:0:0:
402,192,71393,1,0,0:0:0:0:
329,192,71479,1,0,0:0:0:0:
182,192,71479,128,0,73536:0:0:0:0:
36,192,71479,128,0,71650:0:0:0:0:
475,192,71650,128,0,71822:0:0:0:0:
402,192,71650,1,0,0:0:0:0:
402,192,71822,128,0,71993:0:0:0:0:
329,192,71822,1,0,0:0:0:0:
109,192,71822,1,0,0:0:0:0:
329,192,71993,128,0,72507:0:0:0:0:
109,192,71993,128,0,72507:0:0:0:0:
256,192,71993,1,0,0:0:0:0:
475,192,72165,1,0,0:0:0:0:
36,192,72165,1,0,0:0:0:0:
402,192,72336,1,0,0:0:0:0:
475,192,72507,1,0,0:0:0:0:
256,192,72507,1,0,0:0:0:0:
402,192,72679,1,0,0:0:0:0:
36,192,72850,128,0,73193:0:0:0:0:
256,192,72850,1,0,0:0:0:0:
475,192,72850,1,0,0:0:0:0:
109,192,73022,128,0,73193:0:0:0:0:
329,192,73022,1,0,0:0:0:0:
402,192,73193,128,0,73365:0:0:0:0:
475,192,73193,1,0,0:0:0:0:
329,192,73365,1,0,0:0:0:0:
256,192,73365,128,0,73707:0:0:0:0:
36,192,73536,1,0,0:0:0:0:
475,192,73536,1,0,0:0:0:0:
109,192,73622,1,0,0:0:0:0:
182,192,73707,1,0,0:0:0:0:
109,192,73793,1,0,0:0:0:0:
36,192,73879,1,0,0:0:0:0:
475,192,73879,1,0,0:0:0:0:
402,192,73965,1,0,0:0:0:0:
329,192,74050,1,0,0:0:0:0:
256,192,74136,1,0,0:0:0:0:
182,192,74222,1,0,0:0:0:0:
109,192,74222,1,0,0:0:0:0:
36,192,74222,128,0,75593:0:0:0:0:
475,192,74565,128,0,74907:0:0:0:0:
329,192,74565,1,0,0:0:0:0:
402,192,74907,128,0,75250:0:0:0:0:
256,192,74907,1,0,0:0:0:0:
329,192,75250,128,0,75593:0:0:0:0:
182,192,75250,1,0,0:0:0:0:
109,192,75593,1,0,0:0:0:0:
475,192,75593,128,0,75936:0:0:0:0:
256,192,75936,128,0,76279:0:0:0:0:
36,192,76279,128,0,76965:0:0:0:0:
329,192,76279,128,0,76622:0:0:0:0:
182,192,76450,128,0,76622:0:0:0:0:
109,192,76622,128,0,76965:0:0:0:0:
402,192,76622,128,0,76793:0:0:0:0:
475,192,76793,128,0,76965:0:0:0:0:
256,192,76965,1,0,0:0:0:0:
256,192,77307,1,0,0:0:0:0:
36,192,77307,1,0,0:0:0:0:
475,192,77307,1,0,0:0:0:0:
109,192,77479,1,0,0:0:0:0:
402,192,77479,1,0,0:0:0:0:
256,192,77650,1,0,0:0:0:0:
36,192,77650,1,0,0:0:0:0:
475,192,77650,1,0,0:0:0:0:
329,192,77822,1,0,0:0:0:0:
182,192,77822,1,0,0:0:0:0:
256,192,77993,1,0,0:0:0:0:
36,192,77993,1,0,0:0:0:0:
475,192,77993,1,0,0:0:0:0:
182,192,78165,1,0,0:0:0:0:
329,192,78165,1,0,0:0:0:0:
256,192,78336,1,0,0:0:0:0:
36,192,78336,1,0,0:0:0:0:
475,192,78336,1,0,0:0:0:0:
329,192,78507,1,0,0:0:0:0:
182,192,78507,1,0,0:0:0:0:
256,192,78679,1,0,0:0:0:0:
36,192,78679,1,0,0:0:0:0:
475,192,78679,1,0,0:0:0:0:
182,192,78850,1,0,0:0:0:0:
329,192,78850,1,0,0:0:0:0:
109,192,79022,1,0,0:0:0:0:
402,192,79022,1,0,0:0:0:0:
256,192,79022,1,0,0:0:0:0:
36,192,79193,1,0,0:0:0:0:
475,192,79193,1,0,0:0:0:0:
402,192,79365,1,0,0:0:0:0:
109,192,79365,1,0,0:0:0:0:
256,192,79365,1,0,0:0:0:0:
182,192,79536,1,0,0:0:0:0:
329,192,79536,1,0,0:0:0:0:
256,192,79707,1,0,0:0:0:0:
475,192,79707,1,0,0:0:0:0:
36,192,79707,1,0,0:0:0:0:
402,192,80050,1,0,0:0:0:0:
109,192,80050,1,0,0:0:0:0:
256,192,80050,1,0,0:0:0:0:
36,192,80222,1,0,0:0:0:0:
475,192,80222,1,0,0:0:0:0:
256,192,80393,1,0,0:0:0:0:
109,192,80393,1,0,0:0:0:0:
402,192,80393,1,0,0:0:0:0:
475,192,80565,1,0,0:0:0:0:
36,192,80565,1,0,0:0:0:0:
256,192,80736,1,0,0:0:0:0:
109,192,80736,1,0,0:0:0:0:
402,192,80736,1,0,0:0:0:0:
475,192,80907,1,0,0:0:0:0:
36,192,80907,1,0,0:0:0:0:
109,192,81079,1,0,0:0:0:0:
256,192,81079,1,0,0:0:0:0:
402,192,81079,1,0,0:0:0:0:
475,192,81250,1,0,0:0:0:0:
36,192,81250,1,0,0:0:0:0:
256,192,81422,1,0,0:0:0:0:
109,192,81422,1,0,0:0:0:0:
402,192,81422,1,0,0:0:0:0:
182,192,81593,1,0,0:0:0:0:
329,192,81593,1,0,0:0:0:0:
256,192,81765,1,0,0:0:0:0:
109,192,81765,1,0,0:0:0:0:
402,192,81765,1,0,0:0:0:0:
329,192,81936,1,0,0:0:0:0:
182,192,81936,1,0,0:0:0:0:
109,192,82107,1,0,0:0:0:0:
402,192,82107,1,0,0:0:0:0:
256,192,82107,1,0,0:0:0:0:
475,192,82279,1,0,0:0:0:0:
36,192,82279,1,0,0:0:0:0:
109,192,82450,1,0,0:0:0:0:
402,192,82450,1,0,0:0:0:0:
256,192,82450,1,0,0:0:0:0:
36,192,82793,1,0,0:0:0:0:
475,192,82793,1,0,0:0:0:0:
256,192,82793,1,0,0:0:0:0:
109,192,82965,1,0,0:0:0:0:
402,192,82965,1,0,0:0:0:0:
256,192,83136,1,0,0:0:0:0:
182,192,83136,1,0,0:0:0:0:
329,192,83136,1,0,0:0:0:0:
402,192,83307,1,0,0:0:0:0:
109,192,83307,1,0,0:0:0:0:
182,192,83479,1,0,0:0:0:0:
256,192,83479,1,0,0:0:0:0:
329,192,83479,1,0,0:0:0:0:
402,192,83650,1,0,0:0:0:0:
109,192,83650,1,0,0:0:0:0:
182,192,83822,1,0,0:0:0:0:
256,192,83822,1,0,0:0:0:0:
329,192,83822,1,0,0:0:0:0:
402,192,83993,1,0,0:0:0:0:
109,192,83993,1,0,0:0:0:0:
182,192,84165,1,0,0:0:0:0:
256,192,84165,1,0,0:0:0:0:
329,192,84165,1,0,0:0:0:0:
109,192,84336,1,0,0:0:0:0:
402,192,84336,1,0,0:0:0:0:
36,192,84507,1,0,0:0:0:0:
475,192,84507,1,0,0:0:0:0:
256,192,84507,1,0,0:0:0:0:
182,192,84679,1,0,0:0:0:0:
329,192,84679,1,0,0:0:0:0:
402,192,84850,1,0,0:0:0:0:
109,192,84850,1,0,0:0:0:0:
256,192,84850,1,0,0:0:0:0:
36,192,85022,1,0,0:0:0:0:
475,192,85022,1,0,0:0:0:0:
109,192,85193,1,0,0:0:0:0:
402,192,85193,1,0,0:0:0:0:
256,192,85193,1,0,0:0:0:0:
182,192,85193,128,0,85536:0:0:0:0:
329,192,85193,128,0,85536:0:0:0:0:
256,192,85536,128,0,85879:0:0:0:0:
402,192,85879,128,0,86050:0:0:0:0:
109,192,85879,128,0,86050:0:0:0:0:
36,192,86050,128,0,86393:0:0:0:0:
475,192,86050,128,0,86393:0:0:0:0:
182,192,86393,1,0,0:0:0:0:
329,192,86393,1,0,0:0:0:0:
256,192,86565,1,0,0:0:0:0:
109,192,86565,1,0,0:0:0:0:
402,192,86565,1,0,0:0:0:0:
256,192,86736,1,0,0:0:0:0:
36,192,86736,1,0,0:0:0:0:
475,192,86736,1,0,0:0:0:0:
256,192,86907,1,0,0:0:0:0:
109,192,86907,128,0,87593:0:0:0:0:
402,192,86907,128,0,87593:0:0:0:0:
256,192,87079,1,0,0:0:0:0:
36,192,87079,1,0,0:0:0:0:
475,192,87079,1,0,0:0:0:0:
182,192,87593,1,0,0:0:0:0:
329,192,87593,1,0,0:0:0:0:
