osu file format v12

[General]
AudioFilename: Ayane - Shinjitsu he no Requiem.mp3
AudioLeadIn: 0
PreviewTime: 61230
Countdown: 0
SampleSet: Soft
StackLeniency: 0.4
Mode: 3
LetterboxInBreaks: 0
SpecialStyle: 0
WidescreenStoryboard: 1

[Editor]
Bookmarks: 13361,26844,33417,61910,72686,85832,99614,110401
DistanceSpacing: 1.1
BeatDivisor: 4
GridSize: 8

[Metadata]
Title:Anime Songs Vol.1
TitleUnicode:Anime Songs Vol.1
Artist:[ M o m o ]
ArtistUnicode:[ M o m o ]
Creator:[ M o m o ]
Version:Shinjitsu he no Requiem
Source:Anime
Tags:Openings Endings
BeatmapID:359403
BeatmapSetID:144765

[Difficulty]
HPDrainRate:6
CircleSize:7
OverallDifficulty:8
ApproachRate:8
SliderMultiplier:1.6
SliderTickRate:1

[Events]
//Background and Video events
0,0,"547952f8bc_57868566_o2.jpg",0,0
//Break Periods
//Storyboard Layer 0 (Background)
//Storyboard Layer 1 (Fail)
//Storyboard Layer 2 (Pass)
//Storyboard Layer 3 (Foreground)
//Storyboard Sound Samples
//Background Colour Transformations
3,100,163,162,255

[TimingPoints]
1615,337.078651685393,4,2,1,30,1,0
2409,337.078651685393,4,2,1,30,1,0
13365,337.078651685393,4,2,1,30,1,0
88824,337.078651685393,4,2,1,30,1,0

[Colours]
Combo1 : 255,150,0
Combo2 : 5,240,5
Combo3 : 5,5,240
Combo4 : 240,5,5
Combo5 : 255,0,128

[HitObjects]
475,192,2409,128,0,4009:0:0:0:0:
402,192,4009,128,0,5609:0:0:0:0:
329,192,5609,128,0,7209:0:0:0:0:
402,192,7209,128,0,8009:0:0:0:0:
329,192,8009,128,0,8809:0:0:0:0:
256,192,8813,128,0,12310:0:0:0:0:
36,192,10625,1,0,0:0:0:0:
182,192,10793,1,0,0:0:0:0:
36,192,10962,1,0,0:0:0:0:
475,192,11130,1,0,0:0:0:0:
329,192,11299,1,0,0:0:0:0:
475,192,11467,1,0,0:0:0:0:
329,192,11636,1,0,0:0:0:0:
36,192,11805,1,0,0:0:0:0:
182,192,11973,1,0,0:0:0:0:
329,192,12142,1,0,0:0:0:0:
182,192,12310,1,0,0:0:0:0:
475,192,12310,128,0,13153:0:0:0:0:
36,192,12479,1,0,0:0:0:0:
402,192,12647,1,0,0:0:0:0:
256,192,12816,1,0,0:0:0:0:
109,192,12984,1,0,0:0:0:0:
256,192,13153,1,0,0:0:0:0:
109,192,13365,1,0,0:0:0:0:
402,192,13365,1,0,0:0:0:0:
256,192,13365,128,0,13533:0:0:0:0:
329,192,13533,128,0,13702:0:0:0:0:
36,192,13533,1,0,0:0:0:0:
402,192,13702,128,0,13870:0:0:0:0:
109,192,13702,1,0,0:0:0:0:
182,192,13702,1,0,0:0:0:0:
329,192,13870,128,0,14039:0:0:0:0:
36,192,13870,1,0,0:0:0:0:
256,192,14039,128,0,14207:0:0:0:0:
109,192,14039,1,0,0:0:0:0:
475,192,14039,1,0,0:0:0:0:
402,192,14123,1,0,0:0:0:0:
182,192,14207,128,0,14376:0:0:0:0:
329,192,14207,1,0,0:0:0:0:
256,192,14376,128,0,14544:0:0:0:0:
36,192,14376,1,0,0:0:0:0:
109,192,14376,1,0,0:0:0:0:
475,192,14460,1,0,0:0:0:0:
329,192,14544,128,0,14713:0:0:0:0:
402,192,14544,1,0,0:0:0:0:
36,192,14629,1,0,0:0:0:0:
256,192,14713,128,0,14881:0:0:0:0:
109,192,14713,1,0,0:0:0:0:
475,192,14713,1,0,0:0:0:0:
402,192,14797,1,0,0:0:0:0:
182,192,14881,128,0,15050:0:0:0:0:
329,192,14881,1,0,0:0:0:0:
109,192,15050,128,0,15218:0:0:0:0:
475,192,15050,1,0,0:0:0:0:
256,192,15050,1,0,0:0:0:0:
402,192,15134,1,0,0:0:0:0:
36,192,15218,128,0,15387:0:0:0:0:
329,192,15218,1,0,0:0:0:0:
256,192,15303,1,0,0:0:0:0:
182,192,15387,1,0,0:0:0:0:
109,192,15387,1,0,0:0:0:0:
475,192,15387,128,0,15556:0:0:0:0:
256,192,15471,1,0,0:0:0:0:
402,192,15556,128,0,15724:0:0:0:0:
329,192,15556,1,0,0:0:0:0:
329,192,15724,128,0,15893:0:0:0:0:
36,192,15724,1,0,0:0:0:0:
256,192,15724,1,0,0:0:0:0:
109,192,15808,1,0,0:0:0:0:
182,192,15893,128,0,16061:0:0:0:0:
256,192,15893,1,0,0:0:0:0:
256,192,16061,128,0,16230:0:0:0:0:
475,192,16061,1,0,0:0:0:0:
402,192,16061,1,0,0:0:0:0:
109,192,16145,1,0,0:0:0:0:
329,192,16230,128,0,16398:0:0:0:0:
36,192,16230,1,0,0:0:0:0:
475,192,16398,128,0,16567:0:0:0:0:
402,192,16398,1,0,0:0:0:0:
329,192,16567,128,0,16735:0:0:0:0:
402,192,16567,1,0,0:0:0:0:
182,192,16735,128,0,16904:0:0:0:0:
256,192,16735,1,0,0:0:0:0:
475,192,16820,1,0,0:0:0:0:
36,192,16904,128,0,17072:0:0:0:0:
109,192,16904,1,0,0:0:0:0:
109,192,17072,128,0,17241:0:0:0:0:
256,192,17072,1,0,0:0:0:0:
402,192,17072,1,0,0:0:0:0:
182,192,17241,128,0,17409:0:0:0:0:
329,192,17241,1,0,0:0:0:0:
256,192,17409,128,0,17578:0:0:0:0:
402,192,17409,1,0,0:0:0:0:
36,192,17409,1,0,0:0:0:0:
329,192,17578,128,0,17747:0:0:0:0:
475,192,17578,1,0,0:0:0:0:
402,192,17747,128,0,17915:0:0:0:0:
109,192,17747,1,0,0:0:0:0:
256,192,17747,1,0,0:0:0:0:
475,192,17915,128,0,18084:0:0:0:0:
329,192,17915,1,0,0:0:0:0:
402,192,18084,1,0,0:0:0:0:
182,192,18084,1,0,0:0:0:0:
256,192,18084,128,0,18252:0:0:0:0:
36,192,18168,1,0,0:0:0:0:
329,192,18252,1,0,0:0:0:0:
402,192,18252,128,0,18421:0:0:0:0:
475,192,18421,128,0,18589:0:0:0:0:
329,192,18421,1,0,0:0:0:0:
182,192,18421,1,0,0:0:0:0:
36,192,18505,1,0,0:0:0:0:
402,192,18589,128,0,18758:0:0:0:0:
256,192,18589,1,0,0:0:0:0:
329,192,18758,128,0,18926:0:0:0:0:
109,192,18758,1,0,0:0:0:0:
36,192,18758,1,0,0:0:0:0:
182,192,18926,128,0,19095:0:0:0:0:
256,192,18926,1,0,0:0:0:0:
475,192,19011,1,0,0:0:0:0:
109,192,19095,128,0,19263:0:0:0:0:
36,192,19095,1,0,0:0:0:0:
329,192,19095,1,0,0:0:0:0:
256,192,19179,1,0,0:0:0:0:
36,192,19263,128,0,19432:0:0:0:0:
182,192,19263,1,0,0:0:0:0:
256,192,19432,128,0,19600:0:0:0:0:
109,192,19432,1,0,0:0:0:0:
182,192,19432,1,0,0:0:0:0:
475,192,19516,1,0,0:0:0:0:
402,192,19600,128,0,19769:0:0:0:0:
329,192,19600,1,0,0:0:0:0:
256,192,19769,128,0,19938:0:0:0:0:
329,192,19769,1,0,0:0:0:0:
475,192,19769,1,0,0:0:0:0:
36,192,19853,1,0,0:0:0:0:
109,192,19938,128,0,20106:0:0:0:0:
182,192,19938,1,0,0:0:0:0:
182,192,20106,128,0,20275:0:0:0:0:
475,192,20106,1,0,0:0:0:0:
402,192,20106,1,0,0:0:0:0:
329,192,20275,128,0,20443:0:0:0:0:
256,192,20275,1,0,0:0:0:0:
402,192,20443,128,0,20612:0:0:0:0:
475,192,20443,1,0,0:0:0:0:
36,192,20443,1,0,0:0:0:0:
182,192,20527,1,0,0:0:0:0:
256,192,20612,128,0,20780:0:0:0:0:
329,192,20612,1,0,0:0:0:0:
182,192,20780,128,0,20949:0:0:0:0:
475,192,20780,1,0,0:0:0:0:
36,192,20780,1,0,0:0:0:0:
329,192,20864,1,0,0:0:0:0:
36,192,20949,128,0,21117:0:0:0:0:
109,192,20949,1,0,0:0:0:0:
109,192,21117,128,0,21286:0:0:0:0:
402,192,21117,1,0,0:0:0:0:
256,192,21117,1,0,0:0:0:0:
182,192,21286,128,0,21454:0:0:0:0:
329,192,21286,1,0,0:0:0:0:
256,192,21454,128,0,21623:0:0:0:0:
402,192,21454,1,0,0:0:0:0:
36,192,21454,1,0,0:0:0:0:
182,192,21623,128,0,21791:0:0:0:0:
109,192,21623,1,0,0:0:0:0:
109,192,21791,128,0,21960:0:0:0:0:
36,192,21791,1,0,0:0:0:0:
329,192,21791,1,0,0:0:0:0:
182,192,21960,128,0,22129:0:0:0:0:
402,192,21960,1,0,0:0:0:0:
256,192,22129,128,0,22297:0:0:0:0:
475,192,22129,1,0,0:0:0:0:
36,192,22129,1,0,0:0:0:0:
109,192,22213,1,0,0:0:0:0:
329,192,22297,128,0,22466:0:0:0:0:
182,192,22297,1,0,0:0:0:0:
402,192,22466,128,0,22634:0:0:0:0:
36,192,22466,1,0,0:0:0:0:
256,192,22466,1,0,0:0:0:0:
475,192,22634,128,0,22803:0:0:0:0:
329,192,22634,1,0,0:0:0:0:
402,192,22803,1,0,0:0:0:0:
109,192,22803,1,0,0:0:0:0:
36,192,22803,128,0,22971:0:0:0:0:
182,192,22971,128,0,23140:0:0:0:0:
256,192,22971,1,0,0:0:0:0:
256,192,23140,128,0,23308:0:0:0:0:
402,192,23140,1,0,0:0:0:0:
109,192,23140,1,0,0:0:0:0:
329,192,23308,128,0,23477:0:0:0:0:
182,192,23308,1,0,0:0:0:0:
475,192,23477,128,0,23645:0:0:0:0:
256,192,23477,1,0,0:0:0:0:
402,192,23477,1,0,0:0:0:0:
36,192,23561,1,0,0:0:0:0:
402,192,23645,128,0,23814:0:0:0:0:
182,192,23645,1,0,0:0:0:0:
36,192,23730,1,0,0:0:0:0:
256,192,23814,128,0,23982:0:0:0:0:
329,192,23814,1,0,0:0:0:0:
475,192,23814,1,0,0:0:0:0:
182,192,23982,128,0,24151:0:0:0:0:
329,192,23982,1,0,0:0:0:0:
109,192,24151,128,0,24320:0:0:0:0:
256,192,24151,1,0,0:0:0:0:
36,192,24151,1,0,0:0:0:0:
256,192,24320,128,0,24488:0:0:0:0:
182,192,24320,1,0,0:0:0:0:
402,192,24488,128,0,24657:0:0:0:0:
329,192,24488,1,0,0:0:0:0:
475,192,24488,1,0,0:0:0:0:
329,192,24657,128,0,24825:0:0:0:0:
36,192,24657,1,0,0:0:0:0:
182,192,24825,128,0,24994:0:0:0:0:
256,192,24825,1,0,0:0:0:0:
475,192,24909,1,0,0:0:0:0:
36,192,24994,128,0,25162:0:0:0:0:
109,192,24994,1,0,0:0:0:0:
109,192,25162,128,0,25331:0:0:0:0:
256,192,25162,1,0,0:0:0:0:
475,192,25162,1,0,0:0:0:0:
402,192,25247,1,0,0:0:0:0:
182,192,25331,128,0,25499:0:0:0:0:
475,192,25331,1,0,0:0:0:0:
109,192,25499,128,0,25668:0:0:0:0:
36,192,25499,1,0,0:0:0:0:
329,192,25499,1,0,0:0:0:0:
182,192,25668,128,0,25836:0:0:0:0:
475,192,25668,1,0,0:0:0:0:
402,192,25836,128,0,26005:0:0:0:0:
256,192,25836,1,0,0:0:0:0:
329,192,25836,1,0,0:0:0:0:
329,192,26005,128,0,26173:0:0:0:0:
36,192,26005,1,0,0:0:0:0:
256,192,26173,128,0,26848:0:0:0:0:
182,192,26173,1,0,0:0:0:0:
475,192,26173,1,0,0:0:0:0:
36,192,26258,1,0,0:0:0:0:
109,192,26342,1,0,0:0:0:0:
182,192,26426,1,0,0:0:0:0:
475,192,26511,1,0,0:0:0:0:
402,192,26595,1,0,0:0:0:0:
329,192,26679,1,0,0:0:0:0:
36,192,26848,1,0,0:0:0:0:
182,192,26848,1,0,0:0:0:0:
109,192,26848,1,0,0:0:0:0:
475,192,27016,1,0,0:0:0:0:
329,192,27185,1,0,0:0:0:0:
109,192,27185,1,0,0:0:0:0:
256,192,27185,1,0,0:0:0:0:
475,192,27353,128,0,28196:0:0:0:0:
36,192,27353,1,0,0:0:0:0:
402,192,27438,1,0,0:0:0:0:
256,192,27522,1,0,0:0:0:0:
109,192,27522,1,0,0:0:0:0:
329,192,27606,1,0,0:0:0:0:
402,192,27690,1,0,0:0:0:0:
36,192,27859,1,0,0:0:0:0:
182,192,27859,1,0,0:0:0:0:
329,192,27859,1,0,0:0:0:0:
109,192,27943,1,0,0:0:0:0:
402,192,28027,1,0,0:0:0:0:
256,192,28196,128,0,29544:0:0:0:0:
36,192,28196,1,0,0:0:0:0:
182,192,28196,1,0,0:0:0:0:
402,192,28280,1,0,0:0:0:0:
109,192,28364,1,0,0:0:0:0:
182,192,28533,1,0,0:0:0:0:
329,192,28533,1,0,0:0:0:0:
475,192,28533,1,0,0:0:0:0:
36,192,28617,1,0,0:0:0:0:
402,192,28702,1,0,0:0:0:0:
109,192,28786,1,0,0:0:0:0:
329,192,28870,1,0,0:0:0:0:
475,192,28870,1,0,0:0:0:0:
36,192,28954,1,0,0:0:0:0:
109,192,29039,1,0,0:0:0:0:
182,192,29123,1,0,0:0:0:0:
329,192,29207,1,0,0:0:0:0:
402,192,29207,1,0,0:0:0:0:
475,192,29207,1,0,0:0:0:0:
36,192,29291,1,0,0:0:0:0:
182,192,29376,1,0,0:0:0:0:
329,192,29460,1,0,0:0:0:0:
475,192,29544,1,0,0:0:0:0:
36,192,29544,1,0,0:0:0:0:
109,192,29544,128,0,30218:0:0:0:0:
402,192,29629,1,0,0:0:0:0:
182,192,29713,1,0,0:0:0:0:
256,192,29881,1,0,0:0:0:0:
475,192,29881,1,0,0:0:0:0:
36,192,29881,1,0,0:0:0:0:
402,192,30050,1,0,0:0:0:0:
182,192,30218,128,0,30893:0:0:0:0:
329,192,30218,1,0,0:0:0:0:
36,192,30218,1,0,0:0:0:0:
475,192,30303,1,0,0:0:0:0:
256,192,30387,1,0,0:0:0:0:
402,192,30471,1,0,0:0:0:0:
36,192,30556,1,0,0:0:0:0:
256,192,30556,1,0,0:0:0:0:
109,192,30556,1,0,0:0:0:0:
475,192,30724,1,0,0:0:0:0:
402,192,30808,1,0,0:0:0:0:
256,192,30893,128,0,31398:0:0:0:0:
329,192,30893,1,0,0:0:0:0:
36,192,30893,1,0,0:0:0:0:
109,192,31061,1,0,0:0:0:0:
182,192,31230,1,0,0:0:0:0:
475,192,31230,1,0,0:0:0:0:
402,192,31230,1,0,0:0:0:0:
329,192,31398,128,0,31567:0:0:0:0:
36,192,31398,1,0,0:0:0:0:
402,192,31567,128,0,31904:0:0:0:0:
475,192,31567,128,0,32241:0:0:0:0:
182,192,31567,1,0,0:0:0:0:
256,192,31567,1,0,0:0:0:0:
36,192,31651,1,0,0:0:0:0:
109,192,31735,1,0,0:0:0:0:
182,192,31820,1,0,0:0:0:0:
329,192,31904,1,0,0:0:0:0:
256,192,31904,1,0,0:0:0:0:
36,192,31904,1,0,0:0:0:0:
109,192,31988,1,0,0:0:0:0:
182,192,32072,1,0,0:0:0:0:
256,192,32157,1,0,0:0:0:0:
329,192,32241,1,0,0:0:0:0:
402,192,32241,1,0,0:0:0:0:
36,192,32409,1,0,0:0:0:0:
109,192,32578,1,0,0:0:0:0:
329,192,32578,1,0,0:0:0:0:
475,192,32578,1,0,0:0:0:0:
182,192,32747,1,0,0:0:0:0:
256,192,32915,1,0,0:0:0:0:
402,192,32915,1,0,0:0:0:0:
36,192,32999,1,0,0:0:0:0:
475,192,33084,1,0,0:0:0:0:
182,192,33168,1,0,0:0:0:0:
402,192,33252,1,0,0:0:0:0:
36,192,33252,1,0,0:0:0:0:
329,192,33252,1,0,0:0:0:0:
182,192,33421,1,0,0:0:0:0:
329,192,33589,1,0,0:0:0:0:
475,192,33589,1,0,0:0:0:0:
36,192,33673,1,0,0:0:0:0:
256,192,33758,1,0,0:0:0:0:
475,192,33926,1,0,0:0:0:0:
182,192,33926,1,0,0:0:0:0:
36,192,33926,1,0,0:0:0:0:
329,192,34011,1,0,0:0:0:0:
36,192,34095,1,0,0:0:0:0:
402,192,34179,1,0,0:0:0:0:
109,192,34263,1,0,0:0:0:0:
256,192,34263,1,0,0:0:0:0:
475,192,34348,1,0,0:0:0:0:
402,192,34432,1,0,0:0:0:0:
329,192,34516,1,0,0:0:0:0:
256,192,34600,1,0,0:0:0:0:
36,192,34600,1,0,0:0:0:0:
182,192,34600,1,0,0:0:0:0:
475,192,34769,1,0,0:0:0:0:
109,192,34938,1,0,0:0:0:0:
329,192,34938,1,0,0:0:0:0:
36,192,35106,1,0,0:0:0:0:
182,192,35275,1,0,0:0:0:0:
475,192,35275,1,0,0:0:0:0:
402,192,35275,1,0,0:0:0:0:
36,192,35359,1,0,0:0:0:0:
256,192,35443,1,0,0:0:0:0:
329,192,35612,1,0,0:0:0:0:
475,192,35612,1,0,0:0:0:0:
109,192,35696,1,0,0:0:0:0:
402,192,35780,1,0,0:0:0:0:
36,192,35864,1,0,0:0:0:0:
182,192,35949,1,0,0:0:0:0:
256,192,35949,1,0,0:0:0:0:
475,192,35949,1,0,0:0:0:0:
329,192,36117,1,0,0:0:0:0:
475,192,36286,1,0,0:0:0:0:
109,192,36286,1,0,0:0:0:0:
36,192,36454,1,0,0:0:0:0:
256,192,36623,128,0,37634:0:0:0:0:
182,192,36623,1,0,0:0:0:0:
329,192,36623,1,0,0:0:0:0:
402,192,36623,1,0,0:0:0:0:
36,192,36791,1,0,0:0:0:0:
109,192,36960,1,0,0:0:0:0:
475,192,36960,1,0,0:0:0:0:
329,192,37044,1,0,0:0:0:0:
182,192,37129,1,0,0:0:0:0:
36,192,37213,1,0,0:0:0:0:
329,192,37297,1,0,0:0:0:0:
475,192,37297,1,0,0:0:0:0:
109,192,37381,1,0,0:0:0:0:
402,192,37466,1,0,0:0:0:0:
182,192,37550,1,0,0:0:0:0:
475,192,37634,1,0,0:0:0:0:
329,192,37634,128,0,37803:0:0:0:0:
36,192,37634,128,0,40331:0:0:0:0:
402,192,37803,128,0,37971:0:0:0:0:
109,192,37803,1,0,0:0:0:0:
329,192,37971,128,0,38140:0:0:0:0:
182,192,37971,1,0,0:0:0:0:
475,192,37971,1,0,0:0:0:0:
256,192,38140,128,0,38308:0:0:0:0:
109,192,38140,1,0,0:0:0:0:
182,192,38308,128,0,38477:0:0:0:0:
475,192,38308,1,0,0:0:0:0:
329,192,38308,1,0,0:0:0:0:
402,192,38393,1,0,0:0:0:0:
109,192,38477,128,0,38645:0:0:0:0:
329,192,38477,1,0,0:0:0:0:
256,192,38561,1,0,0:0:0:0:
182,192,38645,128,0,38814:0:0:0:0:
475,192,38645,1,0,0:0:0:0:
402,192,38645,1,0,0:0:0:0:
256,192,38814,128,0,38982:0:0:0:0:
109,192,38814,1,0,0:0:0:0:
329,192,38982,128,0,39151:0:0:0:0:
182,192,38982,1,0,0:0:0:0:
402,192,39151,128,0,39320:0:0:0:0:
256,192,39151,1,0,0:0:0:0:
475,192,39320,128,0,39488:0:0:0:0:
329,192,39320,1,0,0:0:0:0:
329,192,39488,128,0,39657:0:0:0:0:
402,192,39488,1,0,0:0:0:0:
182,192,39657,128,0,39825:0:0:0:0:
256,192,39657,1,0,0:0:0:0:
109,192,39657,1,0,0:0:0:0:
475,192,39741,1,0,0:0:0:0:
402,192,39825,128,0,39994:0:0:0:0:
256,192,39825,1,0,0:0:0:0:
256,192,39994,128,0,40162:0:0:0:0:
329,192,39994,1,0,0:0:0:0:
109,192,39994,1,0,0:0:0:0:
109,192,40162,128,0,40331:0:0:0:0:
182,192,40162,1,0,0:0:0:0:
475,192,40331,128,0,43027:0:0:0:0:
182,192,40331,128,0,40499:0:0:0:0:
402,192,40331,1,0,0:0:0:0:
329,192,40331,1,0,0:0:0:0:
329,192,40499,128,0,40668:0:0:0:0:
256,192,40499,1,0,0:0:0:0:
402,192,40668,128,0,40836:0:0:0:0:
36,192,40668,1,0,0:0:0:0:
109,192,40668,1,0,0:0:0:0:
256,192,40836,128,0,41005:0:0:0:0:
329,192,40836,1,0,0:0:0:0:
182,192,41005,128,0,41173:0:0:0:0:
36,192,41005,1,0,0:0:0:0:
329,192,41005,1,0,0:0:0:0:
402,192,41089,1,0,0:0:0:0:
36,192,41173,128,0,41342:0:0:0:0:
109,192,41173,1,0,0:0:0:0:
109,192,41342,128,0,41511:0:0:0:0:
256,192,41342,1,0,0:0:0:0:
329,192,41342,1,0,0:0:0:0:
182,192,41511,128,0,41679:0:0:0:0:
402,192,41511,1,0,0:0:0:0:
256,192,41679,128,0,41848:0:0:0:0:
329,192,41679,1,0,0:0:0:0:
36,192,41679,1,0,0:0:0:0:
182,192,41848,128,0,42016:0:0:0:0:
109,192,41848,1,0,0:0:0:0:
109,192,42016,128,0,42185:0:0:0:0:
402,192,42016,1,0,0:0:0:0:
329,192,42016,1,0,0:0:0:0:
182,192,42185,128,0,42353:0:0:0:0:
36,192,42185,1,0,0:0:0:0:
256,192,42353,128,0,42522:0:0:0:0:
109,192,42353,1,0,0:0:0:0:
329,192,42522,128,0,42690:0:0:0:0:
182,192,42522,1,0,0:0:0:0:
402,192,42690,128,0,42859:0:0:0:0:
256,192,42690,1,0,0:0:0:0:
329,192,42859,1,0,0:0:0:0:
402,192,43027,1,0,0:0:0:0:
256,192,43196,1,0,0:0:0:0:
36,192,43364,128,0,43702:0:0:0:0:
109,192,43364,1,0,0:0:0:0:
182,192,43533,1,0,0:0:0:0:
256,192,43702,128,0,44039:0:0:0:0:
329,192,43702,1,0,0:0:0:0:
475,192,43702,1,0,0:0:0:0:
402,192,43702,1,0,0:0:0:0:
109,192,43870,1,0,0:0:0:0:
475,192,44039,128,0,44376:0:0:0:0:
182,192,44039,1,0,0:0:0:0:
402,192,44039,1,0,0:0:0:0:
329,192,44207,1,0,0:0:0:0:
36,192,44291,1,0,0:0:0:0:
402,192,44376,128,0,44713:0:0:0:0:
256,192,44376,1,0,0:0:0:0:
182,192,44376,1,0,0:0:0:0:
36,192,44544,1,0,0:0:0:0:
329,192,44713,128,0,45050:0:0:0:0:
475,192,44713,1,0,0:0:0:0:
256,192,44713,1,0,0:0:0:0:
36,192,44881,1,0,0:0:0:0:
109,192,44966,1,0,0:0:0:0:
256,192,45050,128,0,45387:0:0:0:0:
182,192,45050,1,0,0:0:0:0:
475,192,45050,1,0,0:0:0:0:
36,192,45050,1,0,0:0:0:0:
402,192,45218,1,0,0:0:0:0:
182,192,45387,128,0,45724:0:0:0:0:
329,192,45387,1,0,0:0:0:0:
109,192,45387,1,0,0:0:0:0:
475,192,45556,1,0,0:0:0:0:
256,192,45724,1,0,0:0:0:0:
402,192,45724,1,0,0:0:0:0:
36,192,45893,1,0,0:0:0:0:
182,192,46061,1,0,0:0:0:0:
475,192,46061,1,0,0:0:0:0:
329,192,46061,128,0,46398:0:0:0:0:
36,192,46230,1,0,0:0:0:0:
402,192,46398,128,0,46735:0:0:0:0:
182,192,46398,1,0,0:0:0:0:
256,192,46398,1,0,0:0:0:0:
475,192,46398,1,0,0:0:0:0:
109,192,46567,1,0,0:0:0:0:
36,192,46735,128,0,47072:0:0:0:0:
256,192,46735,1,0,0:0:0:0:
475,192,46735,1,0,0:0:0:0:
182,192,46904,1,0,0:0:0:0:
109,192,47072,128,0,47409:0:0:0:0:
329,192,47072,1,0,0:0:0:0:
475,192,47072,1,0,0:0:0:0:
182,192,47241,1,0,0:0:0:0:
329,192,47409,128,0,47747:0:0:0:0:
256,192,47409,1,0,0:0:0:0:
36,192,47578,1,0,0:0:0:0:
109,192,47662,1,0,0:0:0:0:
402,192,47747,128,0,48084:0:0:0:0:
182,192,47747,1,0,0:0:0:0:
256,192,47747,1,0,0:0:0:0:
475,192,47747,1,0,0:0:0:0:
36,192,47915,1,0,0:0:0:0:
475,192,48084,128,0,48421:0:0:0:0:
329,192,48084,1,0,0:0:0:0:
109,192,48084,1,0,0:0:0:0:
182,192,48252,1,0,0:0:0:0:
256,192,48421,1,0,0:0:0:0:
402,192,48421,1,0,0:0:0:0:
109,192,48421,1,0,0:0:0:0:
36,192,48589,1,0,0:0:0:0:
182,192,48758,1,0,0:0:0:0:
329,192,48758,128,0,48926:0:0:0:0:
402,192,48926,128,0,49095:0:0:0:0:
36,192,48926,1,0,0:0:0:0:
475,192,49095,128,0,49432:0:0:0:0:
256,192,49095,1,0,0:0:0:0:
182,192,49095,1,0,0:0:0:0:
109,192,49095,1,0,0:0:0:0:
329,192,49263,1,0,0:0:0:0:
256,192,49432,128,0,49769:0:0:0:0:
109,192,49432,1,0,0:0:0:0:
402,192,49432,1,0,0:0:0:0:
36,192,49600,1,0,0:0:0:0:
109,192,49769,128,0,50106:0:0:0:0:
182,192,49769,1,0,0:0:0:0:
475,192,49769,1,0,0:0:0:0:
402,192,49938,1,0,0:0:0:0:
329,192,50106,128,0,50443:0:0:0:0:
36,192,50106,1,0,0:0:0:0:
182,192,50275,1,0,0:0:0:0:
109,192,50359,1,0,0:0:0:0:
475,192,50443,128,0,50780:0:0:0:0:
256,192,50443,1,0,0:0:0:0:
402,192,50443,1,0,0:0:0:0:
36,192,50443,1,0,0:0:0:0:
109,192,50612,1,0,0:0:0:0:
256,192,50780,128,0,51117:0:0:0:0:
182,192,50780,1,0,0:0:0:0:
402,192,50780,1,0,0:0:0:0:
36,192,50949,1,0,0:0:0:0:
329,192,51117,128,0,51791:0:0:0:0:
182,192,51117,1,0,0:0:0:0:
475,192,51117,1,0,0:0:0:0:
36,192,51286,1,0,0:0:0:0:
256,192,51454,1,0,0:0:0:0:
475,192,51623,1,0,0:0:0:0:
109,192,51791,128,0,52129:0:0:0:0:
182,192,51791,1,0,0:0:0:0:
256,192,51791,1,0,0:0:0:0:
36,192,51791,1,0,0:0:0:0:
475,192,51960,1,0,0:0:0:0:
182,192,52129,128,0,52466:0:0:0:0:
36,192,52129,1,0,0:0:0:0:
402,192,52297,1,0,0:0:0:0:
256,192,52466,128,0,52803:0:0:0:0:
36,192,52466,1,0,0:0:0:0:
329,192,52634,1,0,0:0:0:0:
182,192,52803,1,0,0:0:0:0:
475,192,52803,1,0,0:0:0:0:
36,192,52803,1,0,0:0:0:0:
109,192,52971,1,0,0:0:0:0:
402,192,53140,1,0,0:0:0:0:
36,192,53140,1,0,0:0:0:0:
329,192,53140,1,0,0:0:0:0:
109,192,53224,1,0,0:0:0:0:
182,192,53308,1,0,0:0:0:0:
256,192,53393,1,0,0:0:0:0:
329,192,53477,1,0,0:0:0:0:
402,192,53561,1,0,0:0:0:0:
329,192,53645,1,0,0:0:0:0:
256,192,53730,1,0,0:0:0:0:
182,192,53814,1,0,0:0:0:0:
109,192,53814,1,0,0:0:0:0:
36,192,53814,1,0,0:0:0:0:
475,192,53814,128,0,54488:0:0:0:0:
402,192,53982,1,0,0:0:0:0:
256,192,54151,1,0,0:0:0:0:
109,192,54151,1,0,0:0:0:0:
36,192,54151,1,0,0:0:0:0:
182,192,54320,1,0,0:0:0:0:
402,192,54488,128,0,55499:0:0:0:0:
329,192,54488,1,0,0:0:0:0:
36,192,54488,1,0,0:0:0:0:
109,192,54657,1,0,0:0:0:0:
182,192,54825,1,0,0:0:0:0:
329,192,54825,1,0,0:0:0:0:
475,192,54825,1,0,0:0:0:0:
256,192,54994,1,0,0:0:0:0:
329,192,55162,1,0,0:0:0:0:
36,192,55162,1,0,0:0:0:0:
256,192,55331,1,0,0:0:0:0:
36,192,55499,1,0,0:0:0:0:
109,192,55499,1,0,0:0:0:0:
475,192,55499,1,0,0:0:0:0:
256,192,55668,1,0,0:0:0:0:
109,192,55836,1,0,0:0:0:0:
475,192,55836,128,0,56173:0:0:0:0:
402,192,55836,1,0,0:0:0:0:
182,192,56005,1,0,0:0:0:0:
329,192,56173,128,0,56511:0:0:0:0:
402,192,56173,1,0,0:0:0:0:
256,192,56173,1,0,0:0:0:0:
36,192,56342,1,0,0:0:0:0:
182,192,56511,128,0,57185:0:0:0:0:
109,192,56511,1,0,0:0:0:0:
256,192,56511,1,0,0:0:0:0:
475,192,56511,1,0,0:0:0:0:
402,192,56679,1,0,0:0:0:0:
329,192,56848,1,0,0:0:0:0:
256,192,57016,1,0,0:0:0:0:
329,192,57185,128,0,57859:0:0:0:0:
109,192,57185,1,0,0:0:0:0:
36,192,57185,1,0,0:0:0:0:
475,192,57269,1,0,0:0:0:0:
256,192,57353,1,0,0:0:0:0:
36,192,57522,1,0,0:0:0:0:
475,192,57522,1,0,0:0:0:0:
109,192,57522,1,0,0:0:0:0:
256,192,57690,1,0,0:0:0:0:
182,192,57859,128,0,58196:0:0:0:0:
475,192,57859,1,0,0:0:0:0:
36,192,57859,1,0,0:0:0:0:
402,192,58027,1,0,0:0:0:0:
36,192,58196,128,0,58533:0:0:0:0:
109,192,58196,1,0,0:0:0:0:
256,192,58196,1,0,0:0:0:0:
329,192,58364,1,0,0:0:0:0:
256,192,58533,128,0,58870:0:0:0:0:
475,192,58533,1,0,0:0:0:0:
109,192,58533,1,0,0:0:0:0:
329,192,58617,1,0,0:0:0:0:
182,192,58702,1,0,0:0:0:0:
475,192,58870,128,0,60387:0:0:0:0:
36,192,58870,1,0,0:0:0:0:
402,192,58870,1,0,0:0:0:0:
109,192,58870,1,0,0:0:0:0:
182,192,58954,1,0,0:0:0:0:
256,192,59039,1,0,0:0:0:0:
329,192,59123,1,0,0:0:0:0:
256,192,59207,1,0,0:0:0:0:
182,192,59291,1,0,0:0:0:0:
109,192,59376,1,0,0:0:0:0:
36,192,59460,1,0,0:0:0:0:
402,192,59544,1,0,0:0:0:0:
256,192,59544,1,0,0:0:0:0:
109,192,59713,1,0,0:0:0:0:
329,192,59713,1,0,0:0:0:0:
36,192,59713,1,0,0:0:0:0:
182,192,60218,1,0,0:0:0:0:
329,192,60218,1,0,0:0:0:0:
256,192,60218,1,0,0:0:0:0:
109,192,60387,1,0,0:0:0:0:
402,192,60387,1,0,0:0:0:0:
36,192,60387,128,0,61230:0:0:0:0:
109,192,61230,128,0,61904:0:0:0:0:
329,192,61567,128,0,61904:0:0:0:0:
182,192,61904,1,0,0:0:0:0:
256,192,61904,1,0,0:0:0:0:
475,192,61904,128,0,63252:0:0:0:0:
402,192,61904,1,0,0:0:0:0:
36,192,62072,1,0,0:0:0:0:
109,192,62157,1,0,0:0:0:0:
402,192,62241,1,0,0:0:0:0:
182,192,62241,1,0,0:0:0:0:
329,192,62241,1,0,0:0:0:0:
256,192,62409,1,0,0:0:0:0:
36,192,62578,1,0,0:0:0:0:
182,192,62578,1,0,0:0:0:0:
329,192,62662,1,0,0:0:0:0:
109,192,62747,1,0,0:0:0:0:
36,192,62915,1,0,0:0:0:0:
402,192,62915,1,0,0:0:0:0:
256,192,62915,1,0,0:0:0:0:
182,192,63084,1,0,0:0:0:0:
36,192,63252,128,0,64600:0:0:0:0:
109,192,63252,1,0,0:0:0:0:
402,192,63252,1,0,0:0:0:0:
256,192,63421,1,0,0:0:0:0:
475,192,63589,1,0,0:0:0:0:
402,192,63589,1,0,0:0:0:0:
109,192,63589,1,0,0:0:0:0:
182,192,63758,1,0,0:0:0:0:
329,192,63842,1,0,0:0:0:0:
475,192,63926,1,0,0:0:0:0:
109,192,63926,1,0,0:0:0:0:
256,192,64095,1,0,0:0:0:0:
182,192,64263,1,0,0:0:0:0:
402,192,64263,1,0,0:0:0:0:
475,192,64263,1,0,0:0:0:0:
109,192,64432,1,0,0:0:0:0:
256,192,64600,128,0,65949:0:0:0:0:
329,192,64600,1,0,0:0:0:0:
475,192,64600,1,0,0:0:0:0:
402,192,64685,1,0,0:0:0:0:
109,192,64769,1,0,0:0:0:0:
36,192,64938,1,0,0:0:0:0:
182,192,64938,1,0,0:0:0:0:
475,192,64938,1,0,0:0:0:0:
402,192,65106,1,0,0:0:0:0:
109,192,65190,1,0,0:0:0:0:
329,192,65275,1,0,0:0:0:0:
475,192,65275,1,0,0:0:0:0:
36,192,65359,1,0,0:0:0:0:
109,192,65443,1,0,0:0:0:0:
182,192,65527,1,0,0:0:0:0:
329,192,65612,1,0,0:0:0:0:
402,192,65612,1,0,0:0:0:0:
475,192,65612,1,0,0:0:0:0:
182,192,65780,1,0,0:0:0:0:
475,192,65949,128,0,67297:0:0:0:0:
36,192,65949,1,0,0:0:0:0:
402,192,65949,1,0,0:0:0:0:
109,192,66117,1,0,0:0:0:0:
329,192,66286,1,0,0:0:0:0:
182,192,66286,1,0,0:0:0:0:
36,192,66286,1,0,0:0:0:0:
109,192,66370,1,0,0:0:0:0:
256,192,66454,1,0,0:0:0:0:
402,192,66623,128,0,67297:0:0:0:0:
329,192,66623,1,0,0:0:0:0:
36,192,66623,1,0,0:0:0:0:
109,192,66791,1,0,0:0:0:0:
182,192,66791,1,0,0:0:0:0:
256,192,66960,128,0,67297:0:0:0:0:
329,192,66960,1,0,0:0:0:0:
182,192,66960,1,0,0:0:0:0:
109,192,67129,1,0,0:0:0:0:
36,192,67129,1,0,0:0:0:0:
329,192,67297,128,0,68645:0:0:0:0:
182,192,67297,1,0,0:0:0:0:
109,192,67297,1,0,0:0:0:0:
36,192,67634,1,0,0:0:0:0:
256,192,67634,1,0,0:0:0:0:
475,192,67634,1,0,0:0:0:0:
109,192,67803,1,0,0:0:0:0:
182,192,67971,1,0,0:0:0:0:
402,192,67971,1,0,0:0:0:0:
36,192,68056,1,0,0:0:0:0:
256,192,68140,1,0,0:0:0:0:
109,192,68308,1,0,0:0:0:0:
36,192,68308,1,0,0:0:0:0:
475,192,68308,1,0,0:0:0:0:
182,192,68477,1,0,0:0:0:0:
256,192,68645,128,0,69994:0:0:0:0:
402,192,68645,1,0,0:0:0:0:
475,192,68645,1,0,0:0:0:0:
109,192,68814,1,0,0:0:0:0:
36,192,68982,1,0,0:0:0:0:
475,192,68982,1,0,0:0:0:0:
182,192,68982,1,0,0:0:0:0:
402,192,69151,1,0,0:0:0:0:
329,192,69320,1,0,0:0:0:0:
109,192,69320,1,0,0:0:0:0:
36,192,69488,1,0,0:0:0:0:
475,192,69657,1,0,0:0:0:0:
402,192,69657,1,0,0:0:0:0:
182,192,69657,1,0,0:0:0:0:
36,192,69741,1,0,0:0:0:0:
182,192,69825,1,0,0:0:0:0:
36,192,69994,128,0,71342:0:0:0:0:
329,192,69994,1,0,0:0:0:0:
475,192,69994,1,0,0:0:0:0:
109,192,69994,1,0,0:0:0:0:
402,192,70162,1,0,0:0:0:0:
182,192,70331,1,0,0:0:0:0:
475,192,70331,1,0,0:0:0:0:
256,192,70331,1,0,0:0:0:0:
109,192,70499,1,0,0:0:0:0:
475,192,70668,128,0,71342:0:0:0:0:
402,192,70668,1,0,0:0:0:0:
182,192,70668,1,0,0:0:0:0:
329,192,70752,1,0,0:0:0:0:
256,192,70836,1,0,0:0:0:0:
109,192,71005,1,0,0:0:0:0:
182,192,71005,1,0,0:0:0:0:
402,192,71005,1,0,0:0:0:0:
329,192,71173,1,0,0:0:0:0:
256,192,71342,128,0,72690:0:0:0:0:
402,192,71342,1,0,0:0:0:0:
109,192,71342,1,0,0:0:0:0:
182,192,71511,1,0,0:0:0:0:
36,192,71679,1,0,0:0:0:0:
329,192,71679,1,0,0:0:0:0:
402,192,71848,1,0,0:0:0:0:
329,192,72016,128,0,72690:0:0:0:0:
475,192,72016,1,0,0:0:0:0:
182,192,72016,1,0,0:0:0:0:
109,192,72100,1,0,0:0:0:0:
36,192,72185,1,0,0:0:0:0:
109,192,72269,1,0,0:0:0:0:
182,192,72353,1,0,0:0:0:0:
475,192,72353,1,0,0:0:0:0:
36,192,72438,1,0,0:0:0:0:
109,192,72522,1,0,0:0:0:0:
182,192,72606,1,0,0:0:0:0:
109,192,72690,128,0,74039:0:0:0:0:
402,192,72690,1,0,0:0:0:0:
475,192,72690,1,0,0:0:0:0:
36,192,72859,1,0,0:0:0:0:
182,192,73027,1,0,0:0:0:0:
475,192,73027,1,0,0:0:0:0:
329,192,73027,1,0,0:0:0:0:
256,192,73196,1,0,0:0:0:0:
402,192,73364,1,0,0:0:0:0:
182,192,73364,1,0,0:0:0:0:
36,192,73533,1,0,0:0:0:0:
475,192,73702,1,0,0:0:0:0:
329,192,73702,1,0,0:0:0:0:
182,192,73786,1,0,0:0:0:0:
402,192,73870,1,0,0:0:0:0:
36,192,74039,128,0,75387:0:0:0:0:
256,192,74039,1,0,0:0:0:0:
182,192,74039,1,0,0:0:0:0:
475,192,74039,1,0,0:0:0:0:
329,192,74207,1,0,0:0:0:0:
475,192,74376,1,0,0:0:0:0:
109,192,74376,1,0,0:0:0:0:
182,192,74376,1,0,0:0:0:0:
329,192,74460,1,0,0:0:0:0:
475,192,74544,1,0,0:0:0:0:
182,192,74629,1,0,0:0:0:0:
329,192,74713,1,0,0:0:0:0:
402,192,74713,1,0,0:0:0:0:
109,192,74797,1,0,0:0:0:0:
256,192,74881,1,0,0:0:0:0:
475,192,75050,1,0,0:0:0:0:
109,192,75050,1,0,0:0:0:0:
256,192,75218,1,0,0:0:0:0:
475,192,75387,128,0,76735:0:0:0:0:
402,192,75387,1,0,0:0:0:0:
109,192,75387,1,0,0:0:0:0:
256,192,75387,1,0,0:0:0:0:
182,192,75556,1,0,0:0:0:0:
256,192,75724,1,0,0:0:0:0:
36,192,75724,1,0,0:0:0:0:
402,192,75808,1,0,0:0:0:0:
109,192,75893,1,0,0:0:0:0:
182,192,76061,1,0,0:0:0:0:
402,192,76061,1,0,0:0:0:0:
36,192,76061,1,0,0:0:0:0:
329,192,76230,1,0,0:0:0:0:
109,192,76398,1,0,0:0:0:0:
182,192,76398,1,0,0:0:0:0:
36,192,76398,1,0,0:0:0:0:
402,192,76482,1,0,0:0:0:0:
256,192,76567,1,0,0:0:0:0:
109,192,76735,128,0,78084:0:0:0:0:
329,192,76735,1,0,0:0:0:0:
36,192,76735,1,0,0:0:0:0:
182,192,76820,1,0,0:0:0:0:
402,192,76904,1,0,0:0:0:0:
475,192,77072,1,0,0:0:0:0:
36,192,77072,1,0,0:0:0:0:
256,192,77072,1,0,0:0:0:0:
402,192,77157,1,0,0:0:0:0:
475,192,77241,1,0,0:0:0:0:
182,192,77409,1,0,0:0:0:0:
329,192,77409,1,0,0:0:0:0:
36,192,77578,1,0,0:0:0:0:
475,192,77747,1,0,0:0:0:0:
256,192,77747,1,0,0:0:0:0:
402,192,77747,1,0,0:0:0:0:
329,192,77915,1,0,0:0:0:0:
475,192,77999,1,0,0:0:0:0:
256,192,78084,128,0,80780:0:0:0:0:
36,192,78084,1,0,0:0:0:0:
182,192,78084,1,0,0:0:0:0:
329,192,78252,1,0,0:0:0:0:
475,192,78421,1,0,0:0:0:0:
36,192,78421,1,0,0:0:0:0:
182,192,78421,1,0,0:0:0:0:
109,192,78589,1,0,0:0:0:0:
402,192,78758,1,0,0:0:0:0:
36,192,78758,1,0,0:0:0:0:
182,192,78842,1,0,0:0:0:0:
475,192,78926,1,0,0:0:0:0:
329,192,79095,1,0,0:0:0:0:
109,192,79095,1,0,0:0:0:0:
36,192,79095,1,0,0:0:0:0:
402,192,79263,1,0,0:0:0:0:
475,192,79432,1,0,0:0:0:0:
182,192,79432,1,0,0:0:0:0:
109,192,79600,1,0,0:0:0:0:
36,192,79769,1,0,0:0:0:0:
402,192,79769,1,0,0:0:0:0:
329,192,79769,1,0,0:0:0:0:
182,192,79938,1,0,0:0:0:0:
475,192,80106,1,0,0:0:0:0:
329,192,80106,1,0,0:0:0:0:
36,192,80275,1,0,0:0:0:0:
402,192,80443,1,0,0:0:0:0:
182,192,80443,1,0,0:0:0:0:
109,192,80443,1,0,0:0:0:0:
36,192,80612,1,0,0:0:0:0:
475,192,80780,128,0,82129:0:0:0:0:
182,192,80780,1,0,0:0:0:0:
329,192,80780,1,0,0:0:0:0:
36,192,80864,1,0,0:0:0:0:
402,192,80949,1,0,0:0:0:0:
109,192,81033,1,0,0:0:0:0:
256,192,81117,1,0,0:0:0:0:
329,192,81117,1,0,0:0:0:0:
402,192,81286,1,0,0:0:0:0:
109,192,81454,128,0,82129:0:0:0:0:
36,192,81454,1,0,0:0:0:0:
256,192,81454,1,0,0:0:0:0:
402,192,81623,1,0,0:0:0:0:
182,192,81791,1,0,0:0:0:0:
36,192,81791,1,0,0:0:0:0:
329,192,81791,1,0,0:0:0:0:
256,192,81960,1,0,0:0:0:0:
36,192,82129,128,0,83477:0:0:0:0:
402,192,82129,1,0,0:0:0:0:
182,192,82129,1,0,0:0:0:0:
329,192,82213,1,0,0:0:0:0:
182,192,82297,1,0,0:0:0:0:
402,192,82466,1,0,0:0:0:0:
475,192,82466,1,0,0:0:0:0:
109,192,82466,1,0,0:0:0:0:
256,192,82634,1,0,0:0:0:0:
402,192,82803,128,0,83477:0:0:0:0:
475,192,82803,1,0,0:0:0:0:
109,192,82803,1,0,0:0:0:0:
182,192,82887,1,0,0:0:0:0:
256,192,82971,1,0,0:0:0:0:
329,192,83140,1,0,0:0:0:0:
109,192,83140,1,0,0:0:0:0:
475,192,83140,1,0,0:0:0:0:
256,192,83308,1,0,0:0:0:0:
109,192,83393,1,0,0:0:0:0:
329,192,83477,128,0,84825:0:0:0:0:
182,192,83477,1,0,0:0:0:0:
475,192,83477,1,0,0:0:0:0:
256,192,83645,1,0,0:0:0:0:
36,192,83814,1,0,0:0:0:0:
182,192,83814,1,0,0:0:0:0:
109,192,83982,1,0,0:0:0:0:
256,192,84151,1,0,0:0:0:0:
475,192,84151,1,0,0:0:0:0:
402,192,84320,1,0,0:0:0:0:
36,192,84488,1,0,0:0:0:0:
182,192,84488,1,0,0:0:0:0:
475,192,84657,1,0,0:0:0:0:
256,192,84825,128,0,85836:0:0:0:0:
402,192,84825,1,0,0:0:0:0:
182,192,84825,1,0,0:0:0:0:
36,192,84909,1,0,0:0:0:0:
475,192,84994,1,0,0:0:0:0:
109,192,85162,1,0,0:0:0:0:
329,192,85162,1,0,0:0:0:0:
475,192,85331,1,0,0:0:0:0:
182,192,85499,128,0,85836:0:0:0:0:
329,192,85499,1,0,0:0:0:0:
36,192,85499,1,0,0:0:0:0:
475,192,85668,1,0,0:0:0:0:
109,192,85836,128,0,88824:0:0:0:0:
402,192,85836,1,0,0:0:0:0:
329,192,85836,1,0,0:0:0:0:
475,192,88824,128,0,90172:0:0:0:0:
182,192,88824,1,0,0:0:0:0:
402,192,88824,1,0,0:0:0:0:
256,192,88824,1,0,0:0:0:0:
36,192,88992,1,0,0:0:0:0:
109,192,89161,1,0,0:0:0:0:
329,192,89161,1,0,0:0:0:0:
256,192,89329,1,0,0:0:0:0:
329,192,89498,128,0,90172:0:0:0:0:
36,192,89498,1,0,0:0:0:0:
402,192,89498,1,0,0:0:0:0:
256,192,89582,1,0,0:0:0:0:
109,192,89666,1,0,0:0:0:0:
182,192,89835,1,0,0:0:0:0:
402,192,89835,1,0,0:0:0:0:
36,192,90003,1,0,0:0:0:0:
402,192,90172,128,0,91520:0:0:0:0:
256,192,90172,1,0,0:0:0:0:
109,192,90172,1,0,0:0:0:0:
182,192,90172,1,0,0:0:0:0:
36,192,90340,1,0,0:0:0:0:
475,192,90509,1,0,0:0:0:0:
256,192,90509,1,0,0:0:0:0:
109,192,90677,1,0,0:0:0:0:
256,192,90846,1,0,0:0:0:0:
475,192,90846,1,0,0:0:0:0:
36,192,90930,1,0,0:0:0:0:
329,192,91015,1,0,0:0:0:0:
109,192,91183,1,0,0:0:0:0:
256,192,91183,1,0,0:0:0:0:
182,192,91352,1,0,0:0:0:0:
256,192,91520,128,0,92868:0:0:0:0:
329,192,91520,1,0,0:0:0:0:
475,192,91520,1,0,0:0:0:0:
36,192,91520,1,0,0:0:0:0:
182,192,91689,1,0,0:0:0:0:
36,192,91857,1,0,0:0:0:0:
475,192,91857,1,0,0:0:0:0:
329,192,92026,1,0,0:0:0:0:
475,192,92194,128,0,92868:0:0:0:0:
109,192,92194,1,0,0:0:0:0:
402,192,92194,1,0,0:0:0:0:
36,192,92363,1,0,0:0:0:0:
109,192,92531,1,0,0:0:0:0:
329,192,92531,1,0,0:0:0:0:
182,192,92700,1,0,0:0:0:0:
329,192,92868,128,0,94217:0:0:0:0:
402,192,92868,1,0,0:0:0:0:
36,192,92868,1,0,0:0:0:0:
109,192,92868,1,0,0:0:0:0:
182,192,93037,1,0,0:0:0:0:
256,192,93206,1,0,0:0:0:0:
475,192,93206,1,0,0:0:0:0:
36,192,93290,1,0,0:0:0:0:
182,192,93374,1,0,0:0:0:0:
109,192,93543,128,0,94217:0:0:0:0:
402,192,93543,1,0,0:0:0:0:
475,192,93543,1,0,0:0:0:0:
256,192,93627,1,0,0:0:0:0:
36,192,93711,1,0,0:0:0:0:
182,192,93880,1,0,0:0:0:0:
475,192,93880,1,0,0:0:0:0:
36,192,94048,1,0,0:0:0:0:
182,192,94217,128,0,95565:0:0:0:0:
256,192,94217,1,0,0:0:0:0:
402,192,94217,1,0,0:0:0:0:
36,192,94385,1,0,0:0:0:0:
475,192,94554,1,0,0:0:0:0:
256,192,94554,1,0,0:0:0:0:
109,192,94722,1,0,0:0:0:0:
36,192,94891,128,0,95565:0:0:0:0:
329,192,94891,1,0,0:0:0:0:
402,192,94891,1,0,0:0:0:0:
256,192,95059,1,0,0:0:0:0:
475,192,95228,1,0,0:0:0:0:
109,192,95228,1,0,0:0:0:0:
256,192,95397,1,0,0:0:0:0:
109,192,95565,128,0,96913:0:0:0:0:
475,192,95565,1,0,0:0:0:0:
329,192,95565,1,0,0:0:0:0:
402,192,95565,1,0,0:0:0:0:
256,192,95649,1,0,0:0:0:0:
182,192,95734,1,0,0:0:0:0:
36,192,95902,1,0,0:0:0:0:
475,192,95902,1,0,0:0:0:0:
256,192,96071,1,0,0:0:0:0:
182,192,96239,1,0,0:0:0:0:
329,192,96239,1,0,0:0:0:0:
402,192,96408,1,0,0:0:0:0:
475,192,96576,1,0,0:0:0:0:
256,192,96576,1,0,0:0:0:0:
36,192,96576,1,0,0:0:0:0:
256,192,96913,128,0,98262:0:0:0:0:
329,192,96913,1,0,0:0:0:0:
402,192,96913,1,0,0:0:0:0:
182,192,96913,1,0,0:0:0:0:
36,192,97082,1,0,0:0:0:0:
475,192,97250,1,0,0:0:0:0:
329,192,97250,1,0,0:0:0:0:
109,192,97419,1,0,0:0:0:0:
475,192,97588,128,0,98262:0:0:0:0:
402,192,97588,1,0,0:0:0:0:
329,192,97588,1,0,0:0:0:0:
36,192,97672,1,0,0:0:0:0:
182,192,97756,1,0,0:0:0:0:
36,192,97925,1,0,0:0:0:0:
402,192,97925,1,0,0:0:0:0:
109,192,98093,1,0,0:0:0:0:
402,192,98262,128,0,99610:0:0:0:0:
329,192,98262,1,0,0:0:0:0:
182,192,98262,1,0,0:0:0:0:
36,192,98430,1,0,0:0:0:0:
329,192,98599,1,0,0:0:0:0:
182,192,98599,1,0,0:0:0:0:
36,192,98683,1,0,0:0:0:0:
256,192,98767,1,0,0:0:0:0:
329,192,98936,128,0,99610:0:0:0:0:
475,192,98936,1,0,0:0:0:0:
109,192,98936,1,0,0:0:0:0:
256,192,99104,1,0,0:0:0:0:
182,192,99273,1,0,0:0:0:0:
475,192,99273,1,0,0:0:0:0:
109,192,99441,1,0,0:0:0:0:
475,192,99610,128,0,102307:0:0:0:0:
256,192,99610,1,0,0:0:0:0:
36,192,99610,128,0,99779:0:0:0:0:
182,192,99610,1,0,0:0:0:0:
109,192,99779,128,0,99947:0:0:0:0:
256,192,99779,1,0,0:0:0:0:
182,192,99947,128,0,100116:0:0:0:0:
329,192,99947,1,0,0:0:0:0:
402,192,99947,1,0,0:0:0:0:
256,192,100116,1,0,0:0:0:0:
36,192,100284,1,0,0:0:0:0:
329,192,100284,1,0,0:0:0:0:
402,192,100453,128,0,100621:0:0:0:0:
256,192,100453,1,0,0:0:0:0:
329,192,100621,128,0,100790:0:0:0:0:
182,192,100621,1,0,0:0:0:0:
36,192,100621,1,0,0:0:0:0:
256,192,100790,128,0,100958:0:0:0:0:
109,192,100790,1,0,0:0:0:0:
182,192,100958,128,0,101127:0:0:0:0:
402,192,100958,1,0,0:0:0:0:
109,192,101127,128,0,101464:0:0:0:0:
329,192,101127,1,0,0:0:0:0:
256,192,101295,1,0,0:0:0:0:
36,192,101295,1,0,0:0:0:0:
182,192,101464,128,0,101632:0:0:0:0:
329,192,101464,1,0,0:0:0:0:
256,192,101632,128,0,101801:0:0:0:0:
402,192,101632,1,0,0:0:0:0:
36,192,101632,1,0,0:0:0:0:
329,192,101801,128,0,101970:0:0:0:0:
109,192,101801,1,0,0:0:0:0:
402,192,101970,128,0,102307:0:0:0:0:
182,192,101970,1,0,0:0:0:0:
36,192,101970,1,0,0:0:0:0:
256,192,102138,1,0,0:0:0:0:
109,192,102222,1,0,0:0:0:0:
329,192,102307,1,0,0:0:0:0:
36,192,102307,1,0,0:0:0:0:
256,192,102475,128,0,102644:0:0:0:0:
182,192,102475,1,0,0:0:0:0:
402,192,102644,128,0,102812:0:0:0:0:
329,192,102644,1,0,0:0:0:0:
109,192,102812,128,0,102981:0:0:0:0:
36,192,102812,1,0,0:0:0:0:
182,192,102981,1,0,0:0:0:0:
329,192,102981,1,0,0:0:0:0:
475,192,103149,128,0,103318:0:0:0:0:
402,192,103149,1,0,0:0:0:0:
256,192,103318,128,0,103486:0:0:0:0:
329,192,103318,1,0,0:0:0:0:
182,192,103318,1,0,0:0:0:0:
36,192,103486,128,0,103655:0:0:0:0:
109,192,103486,1,0,0:0:0:0:
182,192,103655,1,0,0:0:0:0:
329,192,103655,1,0,0:0:0:0:
475,192,103655,128,0,103823:0:0:0:0:
256,192,103739,1,0,0:0:0:0:
109,192,103823,1,0,0:0:0:0:
402,192,103823,128,0,104161:0:0:0:0:
36,192,103992,1,0,0:0:0:0:
256,192,103992,1,0,0:0:0:0:
329,192,104161,128,0,104329:0:0:0:0:
475,192,104161,1,0,0:0:0:0:
256,192,104329,128,0,104498:0:0:0:0:
402,192,104329,1,0,0:0:0:0:
109,192,104329,1,0,0:0:0:0:
182,192,104498,128,0,104666:0:0:0:0:
329,192,104498,1,0,0:0:0:0:
109,192,104666,128,0,105003:0:0:0:0:
256,192,104666,1,0,0:0:0:0:
36,192,104666,1,0,0:0:0:0:
329,192,104835,1,0,0:0:0:0:
256,192,104919,1,0,0:0:0:0:
36,192,105003,1,0,0:0:0:0:
182,192,105003,1,0,0:0:0:0:
475,192,105003,1,0,0:0:0:0:
402,192,105172,128,0,105340:0:0:0:0:
36,192,105172,1,0,0:0:0:0:
256,192,105340,128,0,105509:0:0:0:0:
329,192,105340,1,0,0:0:0:0:
109,192,105340,1,0,0:0:0:0:
109,192,105509,128,0,105677:0:0:0:0:
182,192,105509,1,0,0:0:0:0:
36,192,105677,1,0,0:0:0:0:
256,192,105677,1,0,0:0:0:0:
475,192,105846,128,0,106015:0:0:0:0:
329,192,105846,1,0,0:0:0:0:
329,192,106015,128,0,106183:0:0:0:0:
402,192,106015,1,0,0:0:0:0:
109,192,106015,1,0,0:0:0:0:
182,192,106183,128,0,106352:0:0:0:0:
256,192,106183,1,0,0:0:0:0:
36,192,106183,1,0,0:0:0:0:
36,192,106352,128,0,106520:0:0:0:0:
109,192,106352,1,0,0:0:0:0:
402,192,106520,128,0,106857:0:0:0:0:
475,192,106520,1,0,0:0:0:0:
109,192,106689,1,0,0:0:0:0:
256,192,106689,1,0,0:0:0:0:
329,192,106857,128,0,107026:0:0:0:0:
182,192,106857,1,0,0:0:0:0:
256,192,107026,128,0,107194:0:0:0:0:
36,192,107026,1,0,0:0:0:0:
475,192,107026,1,0,0:0:0:0:
329,192,107194,128,0,107363:0:0:0:0:
109,192,107194,1,0,0:0:0:0:
402,192,107363,128,0,107700:0:0:0:0:
182,192,107363,1,0,0:0:0:0:
475,192,107363,1,0,0:0:0:0:
256,192,107531,1,0,0:0:0:0:
109,192,107616,1,0,0:0:0:0:
475,192,107700,1,0,0:0:0:0:
329,192,107700,1,0,0:0:0:0:
36,192,107868,128,0,108037:0:0:0:0:
182,192,107868,1,0,0:0:0:0:
256,192,108037,128,0,108206:0:0:0:0:
109,192,108037,1,0,0:0:0:0:
329,192,108037,1,0,0:0:0:0:
475,192,108206,128,0,108374:0:0:0:0:
402,192,108206,1,0,0:0:0:0:
329,192,108374,1,0,0:0:0:0:
182,192,108374,1,0,0:0:0:0:
109,192,108543,1,0,0:0:0:0:
36,192,108711,128,0,108880:0:0:0:0:
182,192,108711,1,0,0:0:0:0:
475,192,108711,1,0,0:0:0:0:
109,192,108880,128,0,109048:0:0:0:0:
256,192,108880,1,0,0:0:0:0:
182,192,109048,128,0,109217:0:0:0:0:
329,192,109048,1,0,0:0:0:0:
475,192,109048,1,0,0:0:0:0:
256,192,109217,128,0,109554:0:0:0:0:
402,192,109217,1,0,0:0:0:0:
36,192,109301,1,0,0:0:0:0:
475,192,109385,1,0,0:0:0:0:
182,192,109470,1,0,0:0:0:0:
329,192,109554,128,0,109722:0:0:0:0:
36,192,109554,1,0,0:0:0:0:
109,192,109638,1,0,0:0:0:0:
402,192,109722,128,0,109891:0:0:0:0:
182,192,109722,1,0,0:0:0:0:
36,192,109807,1,0,0:0:0:0:
475,192,109891,128,0,110059:0:0:0:0:
256,192,109891,1,0,0:0:0:0:
109,192,109975,1,0,0:0:0:0:
329,192,110059,128,0,110397:0:0:0:0:
402,192,110059,1,0,0:0:0:0:
256,192,110059,1,0,0:0:0:0:
182,192,110144,1,0,0:0:0:0:
109,192,110228,1,0,0:0:0:0:
36,192,110312,1,0,0:0:0:0:
256,192,110397,128,0,114441:0:0:0:0:
182,192,110397,1,0,0:0:0:0:
475,192,110397,1,0,0:0:0:0:
402,192,110397,1,0,0:0:0:0:
109,192,110397,1,0,0:0:0:0:
