osu file format v12

[General]
AudioFilename: BEAM my BEAM.mp3
AudioLeadIn: 2000
PreviewTime: 11530
Countdown: 0
SampleSet: Soft
StackLeniency: 0.6
Mode: 3
LetterboxInBreaks: 0
SpecialStyle: 0
WidescreenStoryboard: 1

[Editor]
DistanceSpacing: 1.4
BeatDivisor: 4
GridSize: 8

[Metadata]
Title:Anime Songs Vol.1
TitleUnicode:Anime Songs Vol.1
Artist:[ M o m o ]
ArtistUnicode:[ M o m o ]
Creator:[ M o m o ]
Version:BEAM my BEAM
Source:Anime
Tags:Openings Endings
BeatmapID:372696
BeatmapSetID:144765

[Difficulty]
HPDrainRate:5
CircleSize:7
OverallDifficulty:5
ApproachRate:7
SliderMultiplier:1.4
SliderTickRate:1

[Events]
//Background and Video events
0,0,"HD.jpg",0,0
//Break Periods
//Storyboard Layer 0 (Background)
//Storyboard Layer 1 (Fail)
//Storyboard Layer 2 (Pass)
//Storyboard Layer 3 (Foreground)
//Storyboard Sound Samples
//Background Colour Transformations
3,100,255,128,255

[TimingPoints]
433,346.820809248555,4,2,0,0,1,0
60087,-100,4,2,0,0,0,1
82283,-100,4,2,0,0,0,0

[Colours]
Combo1 : 255,0,255
Combo2 : 255,0,0
Combo3 : 0,255,255
Combo4 : 255,255,0
Combo5 : 0,255,0

[HitObjects]
109,192,433,1,0,0:0:0:0:
256,192,433,1,4,0:0:0:0:
475,192,433,1,4,0:0:0:0:
182,192,607,1,0,0:0:0:0:
36,192,607,1,0,0:0:0:0:
402,192,693,1,0,0:0:0:0:
329,192,780,1,0,0:0:0:0:
109,192,780,1,0,0:0:0:0:
36,192,954,1,0,0:0:0:0:
182,192,954,1,4,0:0:0:0:
402,192,954,1,4,0:0:0:0:
109,192,1040,1,0,0:0:0:0:
256,192,1127,1,0,0:0:0:0:
475,192,1127,1,0,0:0:0:0:
36,192,1214,1,0,0:0:0:0:
329,192,1214,1,0,0:0:0:0:
182,192,1300,1,0,0:0:0:0:
402,192,1300,1,0,0:0:0:0:
256,192,1387,1,0,0:0:0:0:
329,192,1474,1,4,0:0:0:0:
109,192,1474,1,4,0:0:0:0:
475,192,1474,1,0,0:0:0:0:
36,192,1560,1,0,0:0:0:0:
182,192,1647,1,0,0:0:0:0:
402,192,1647,1,0,0:0:0:0:
329,192,1734,1,0,0:0:0:0:
475,192,1821,1,0,0:0:0:0:
109,192,1821,1,0,0:0:0:0:
402,192,1994,1,4,0:0:0:0:
36,192,1994,1,0,0:0:0:0:
256,192,1994,1,4,0:0:0:0:
329,192,2081,1,0,0:0:0:0:
109,192,2167,1,0,0:0:0:0:
475,192,2167,1,0,0:0:0:0:
256,192,2254,1,0,0:0:0:0:
402,192,2341,1,0,0:0:0:0:
36,192,2341,1,0,0:0:0:0:
109,192,2514,1,4,0:0:0:0:
256,192,2514,1,4,0:0:0:0:
475,192,2514,1,0,0:0:0:0:
36,192,2861,1,0,0:0:0:0:
475,192,2861,1,4,0:0:0:0:
256,192,2861,1,4,0:0:0:0:
109,192,3208,1,4,0:0:0:0:
402,192,3208,1,0,0:0:0:0:
256,192,3208,1,4,0:0:0:0:
36,192,3381,1,0,0:0:0:0:
475,192,3381,1,0,0:0:0:0:
182,192,3468,1,0,0:0:0:0:
329,192,3555,1,0,0:0:0:0:
475,192,3555,1,0,0:0:0:0:
109,192,3728,1,0,0:0:0:0:
402,192,3728,1,4,0:0:0:0:
256,192,3728,1,4,0:0:0:0:
182,192,3815,1,0,0:0:0:0:
329,192,3902,1,0,0:0:0:0:
475,192,3902,1,0,0:0:0:0:
182,192,3988,1,0,0:0:0:0:
36,192,4075,1,0,0:0:0:0:
402,192,4075,1,0,0:0:0:0:
256,192,4162,1,0,0:0:0:0:
182,192,4248,1,4,0:0:0:0:
329,192,4248,1,4,0:0:0:0:
475,192,4248,1,0,0:0:0:0:
109,192,4422,1,0,0:0:0:0:
402,192,4422,1,0,0:0:0:0:
256,192,4508,1,0,0:0:0:0:
36,192,4595,1,0,0:0:0:0:
475,192,4595,1,0,0:0:0:0:
329,192,4682,1,0,0:0:0:0:
182,192,4769,1,4,0:0:0:0:
402,192,4769,1,4,0:0:0:0:
36,192,4769,1,0,0:0:0:0:
475,192,4855,1,0,0:0:0:0:
329,192,4942,1,0,0:0:0:0:
109,192,4942,1,0,0:0:0:0:
475,192,5029,1,0,0:0:0:0:
256,192,5115,1,0,0:0:0:0:
36,192,5115,1,0,0:0:0:0:
109,192,5289,1,4,0:0:0:0:
329,192,5289,1,4,0:0:0:0:
475,192,5289,1,0,0:0:0:0:
402,192,5636,1,4,0:0:0:0:
182,192,5636,1,4,0:0:0:0:
36,192,5636,1,0,0:0:0:0:
109,192,5982,1,0,0:0:0:0:
256,192,5982,1,0,0:0:0:0:
475,192,5982,1,0,0:0:0:0:
36,192,6156,1,0,0:0:0:0:
182,192,6243,1,0,0:0:0:0:
329,192,6329,1,0,0:0:0:0:
109,192,6416,1,0,0:0:0:0:
402,192,6503,1,0,0:0:0:0:
256,192,6589,1,0,0:0:0:0:
36,192,6676,1,4,0:0:0:0:
475,192,6676,1,4,0:0:0:0:
182,192,6850,1,0,0:0:0:0:
329,192,6936,1,0,0:0:0:0:
109,192,7023,1,0,0:0:0:0:
402,192,7110,1,0,0:0:0:0:
256,192,7196,1,0,0:0:0:0:
109,192,7283,1,0,0:0:0:0:
475,192,7370,1,0,0:0:0:0:
329,192,7370,1,0,0:0:0:0:
36,192,7370,1,0,0:0:0:0:
182,192,7543,1,0,0:0:0:0:
329,192,7630,1,0,0:0:0:0:
475,192,7717,1,0,0:0:0:0:
36,192,7803,1,0,0:0:0:0:
329,192,7890,1,0,0:0:0:0:
109,192,7977,1,0,0:0:0:0:
256,192,8063,1,4,0:0:0:0:
475,192,8063,1,4,0:0:0:0:
402,192,8150,1,0,0:0:0:0:
36,192,8150,1,0,0:0:0:0:
329,192,8237,1,0,0:0:0:0:
256,192,8323,1,0,0:0:0:0:
475,192,8323,1,0,0:0:0:0:
182,192,8410,1,0,0:0:0:0:
36,192,8410,1,0,0:0:0:0:
256,192,8497,1,0,0:0:0:0:
329,192,8584,1,0,0:0:0:0:
402,192,8670,1,0,0:0:0:0:
475,192,8757,1,0,0:0:0:0:
36,192,8757,1,0,0:0:0:0:
182,192,8757,1,4,0:0:0:0:
256,192,8757,1,4,0:0:0:0:
109,192,8930,1,0,0:0:0:0:
329,192,8930,1,0,0:0:0:0:
182,192,9104,1,4,0:0:0:0:
475,192,9104,1,4,0:0:0:0:
36,192,9104,1,0,0:0:0:0:
329,192,9191,1,0,0:0:0:0:
109,192,9277,1,0,0:0:0:0:
402,192,9364,1,0,0:0:0:0:
256,192,9451,1,4,0:0:0:0:
36,192,9451,1,4,0:0:0:0:
182,192,9451,1,0,0:0:0:0:
475,192,9537,1,0,0:0:0:0:
109,192,9624,1,0,0:0:0:0:
256,192,9711,1,0,0:0:0:0:
402,192,9797,1,4,0:0:0:0:
36,192,9797,1,0,0:0:0:0:
475,192,9797,1,4,0:0:0:0:
109,192,9884,1,0,0:0:0:0:
182,192,9971,1,0,0:0:0:0:
256,192,10058,1,0,0:0:0:0:
329,192,10144,1,8,0:0:0:0:
36,192,10144,1,0,0:0:0:0:
475,192,10144,1,4,0:0:0:0:
109,192,10231,1,0,0:0:0:0:
36,192,10318,1,0,0:0:0:0:
402,192,10318,1,0,0:0:0:0:
109,192,10404,1,0,0:0:0:0:
36,192,10491,1,0,0:0:0:0:
256,192,10491,1,4,0:0:0:0:
475,192,10491,1,8,0:0:0:0:
109,192,10578,1,0,0:0:0:0:
36,192,10665,1,0,0:0:0:0:
329,192,10665,1,0,0:0:0:0:
109,192,10751,1,0,0:0:0:0:
36,192,10838,1,2,0:0:0:0:
402,192,10838,1,4,0:0:0:0:
182,192,10838,1,8,0:0:0:0:
475,192,10925,1,0,0:0:0:0:
256,192,11011,1,0,0:0:0:0:
329,192,11098,1,0,0:0:0:0:
36,192,11098,1,0,0:0:0:0:
109,192,11185,1,0,0:0:0:0:
475,192,11185,1,4,0:0:0:0:
182,192,11185,1,8,0:0:0:0:
402,192,11271,1,0,0:0:0:0:
329,192,11358,1,0,0:0:0:0:
256,192,11445,1,0,0:0:0:0:
475,192,11531,128,0,12745:0:0:0:0:
402,192,11531,128,0,11878:0:0:0:0:
36,192,11532,1,0,0:0:0:0:
182,192,11532,1,8,0:0:0:0:
256,192,11704,1,0,0:0:0:0:
109,192,11878,128,0,12225:0:0:0:0:
329,192,11878,1,0,0:0:0:0:
182,192,11878,1,0,0:0:0:0:
256,192,12051,1,0,0:0:0:0:
182,192,12138,1,0,0:0:0:0:
182,192,12224,1,0,0:0:0:0:
36,192,12224,1,0,0:0:0:0:
402,192,12224,1,0,0:0:0:0:
329,192,12225,128,0,12572:0:0:0:0:
256,192,12398,1,0,0:0:0:0:
36,192,12398,1,0,0:0:0:0:
109,192,12571,1,0,0:0:0:0:
182,192,12571,1,0,0:0:0:0:
256,192,12745,1,0,0:0:0:0:
36,192,12745,128,0,14305:0:0:0:0:
109,192,12918,1,0,0:0:0:0:
182,192,12918,1,0,0:0:0:0:
329,192,12918,1,0,0:0:0:0:
475,192,13091,1,0,0:0:0:0:
256,192,13178,1,0,0:0:0:0:
109,192,13265,1,0,0:0:0:0:
402,192,13265,1,0,0:0:0:0:
182,192,13352,1,0,0:0:0:0:
256,192,13438,1,0,0:0:0:0:
402,192,13438,1,0,0:0:0:0:
475,192,13438,1,0,0:0:0:0:
182,192,13525,1,0,0:0:0:0:
256,192,13612,1,0,0:0:0:0:
329,192,13612,1,0,0:0:0:0:
182,192,13698,1,0,0:0:0:0:
109,192,13785,1,0,0:0:0:0:
475,192,13785,1,0,0:0:0:0:
402,192,13785,1,0,0:0:0:0:
182,192,13872,1,0,0:0:0:0:
256,192,13959,1,0,0:0:0:0:
109,192,13959,1,0,0:0:0:0:
475,192,14045,1,0,0:0:0:0:
182,192,14132,1,0,0:0:0:0:
329,192,14132,1,0,0:0:0:0:
402,192,14132,1,0,0:0:0:0:
256,192,14305,1,0,0:0:0:0:
109,192,14305,1,0,0:0:0:0:
329,192,14305,1,0,0:0:0:0:
475,192,14305,128,0,15519:0:0:0:0:
182,192,14305,128,0,14652:0:0:0:0:
402,192,14479,1,0,0:0:0:0:
329,192,14652,128,0,14999:0:0:0:0:
256,192,14652,1,0,0:0:0:0:
36,192,14652,1,0,0:0:0:0:
109,192,14826,1,0,0:0:0:0:
256,192,14912,1,0,0:0:0:0:
109,192,14999,128,0,15346:0:0:0:0:
256,192,14999,1,0,0:0:0:0:
402,192,14999,1,0,0:0:0:0:
36,192,14999,1,0,0:0:0:0:
256,192,15172,1,0,0:0:0:0:
402,192,15172,1,0,0:0:0:0:
329,192,15259,1,0,0:0:0:0:
36,192,15346,1,0,0:0:0:0:
182,192,15346,1,0,0:0:0:0:
402,192,15519,1,0,0:0:0:0:
256,192,15519,1,0,0:0:0:0:
36,192,15519,1,0,0:0:0:0:
329,192,15519,128,0,16213:0:0:0:0:
109,192,15693,1,0,0:0:0:0:
182,192,15693,1,0,0:0:0:0:
36,192,15866,1,0,0:0:0:0:
256,192,15866,1,0,0:0:0:0:
475,192,15866,1,0,0:0:0:0:
109,192,16039,1,0,0:0:0:0:
182,192,16039,1,0,0:0:0:0:
402,192,16213,128,0,17080:0:0:0:0:
256,192,16213,1,0,0:0:0:0:
36,192,16213,1,0,0:0:0:0:
475,192,16213,1,0,0:0:0:0:
109,192,16300,1,0,0:0:0:0:
182,192,16386,1,0,0:0:0:0:
36,192,16386,1,0,0:0:0:0:
329,192,16473,1,0,0:0:0:0:
256,192,16560,1,0,0:0:0:0:
109,192,16560,1,0,0:0:0:0:
475,192,16560,1,0,0:0:0:0:
182,192,16733,1,0,0:0:0:0:
36,192,16733,1,0,0:0:0:0:
329,192,16733,1,0,0:0:0:0:
256,192,16906,1,0,0:0:0:0:
475,192,17080,128,0,18467:0:0:0:0:
329,192,17080,1,0,0:0:0:0:
182,192,17080,1,0,0:0:0:0:
109,192,17080,1,0,0:0:0:0:
256,192,17253,1,0,0:0:0:0:
36,192,17427,1,0,0:0:0:0:
402,192,17427,1,0,0:0:0:0:
182,192,17600,1,0,0:0:0:0:
402,192,17687,1,0,0:0:0:0:
109,192,17774,1,0,0:0:0:0:
402,192,17774,1,0,0:0:0:0:
256,192,17774,1,0,0:0:0:0:
36,192,17947,1,0,0:0:0:0:
329,192,17947,1,0,0:0:0:0:
256,192,17947,1,0,0:0:0:0:
182,192,18120,1,0,0:0:0:0:
402,192,18120,1,0,0:0:0:0:
109,192,18294,1,0,0:0:0:0:
36,192,18467,1,0,0:0:0:0:
402,192,18467,1,0,0:0:0:0:
329,192,18467,1,0,0:0:0:0:
256,192,18467,128,0,19161:0:0:0:0:
182,192,18641,1,0,0:0:0:0:
36,192,18814,1,0,0:0:0:0:
475,192,18814,1,0,0:0:0:0:
182,192,18901,1,0,0:0:0:0:
109,192,18987,1,0,0:0:0:0:
182,192,19074,1,0,0:0:0:0:
402,192,19074,1,0,0:0:0:0:
475,192,19161,128,0,19854:0:0:0:0:
36,192,19161,1,0,0:0:0:0:
329,192,19161,1,0,0:0:0:0:
402,192,19248,1,0,0:0:0:0:
109,192,19248,1,0,0:0:0:0:
182,192,19334,1,0,0:0:0:0:
256,192,19334,1,0,0:0:0:0:
36,192,19334,1,0,0:0:0:0:
109,192,19421,1,0,0:0:0:0:
182,192,19508,1,0,0:0:0:0:
402,192,19508,1,0,0:0:0:0:
329,192,19508,128,0,19854:0:0:0:0:
36,192,19508,1,0,0:0:0:0:
109,192,19854,128,0,21068:0:0:0:0:
36,192,19854,1,0,0:0:0:0:
182,192,19854,1,0,0:0:0:0:
402,192,19854,1,0,0:0:0:0:
256,192,20028,1,0,0:0:0:0:
329,192,20201,1,0,0:0:0:0:
182,192,20201,1,0,0:0:0:0:
475,192,20201,1,0,0:0:0:0:
256,192,20375,1,0,0:0:0:0:
402,192,20461,1,0,0:0:0:0:
36,192,20548,1,0,0:0:0:0:
402,192,20548,1,0,0:0:0:0:
182,192,20548,1,0,0:0:0:0:
475,192,20722,1,0,0:0:0:0:
182,192,20722,1,0,0:0:0:0:
329,192,20722,1,0,0:0:0:0:
402,192,20895,1,0,0:0:0:0:
256,192,20895,1,0,0:0:0:0:
182,192,21068,1,0,0:0:0:0:
36,192,21068,1,0,0:0:0:0:
329,192,21068,1,0,0:0:0:0:
475,192,21242,128,0,22629:0:0:0:0:
109,192,21415,1,0,0:0:0:0:
256,192,21415,1,0,0:0:0:0:
402,192,21415,1,0,0:0:0:0:
36,192,21589,1,0,0:0:0:0:
329,192,21589,1,0,0:0:0:0:
109,192,21675,1,0,0:0:0:0:
182,192,21762,1,0,0:0:0:0:
36,192,21762,1,0,0:0:0:0:
402,192,21762,1,0,0:0:0:0:
109,192,21849,1,0,0:0:0:0:
182,192,21935,1,0,0:0:0:0:
109,192,22022,1,0,0:0:0:0:
36,192,22109,1,0,0:0:0:0:
256,192,22109,1,0,0:0:0:0:
402,192,22109,1,0,0:0:0:0:
182,192,22282,1,0,0:0:0:0:
329,192,22282,1,0,0:0:0:0:
36,192,22282,1,0,0:0:0:0:
109,192,22456,1,0,0:0:0:0:
256,192,22456,1,0,0:0:0:0:
402,192,22456,1,0,0:0:0:0:
182,192,22629,1,0,0:0:0:0:
36,192,22629,128,0,24016:0:0:0:0:
329,192,22629,128,0,22976:0:0:0:0:
256,192,22802,1,0,0:0:0:0:
402,192,22976,1,0,0:0:0:0:
182,192,22976,1,0,0:0:0:0:
475,192,22976,128,0,23323:0:0:0:0:
109,192,22976,1,0,0:0:0:0:
256,192,23149,1,0,0:0:0:0:
402,192,23323,1,0,0:0:0:0:
182,192,23323,128,0,23669:0:0:0:0:
329,192,23323,1,0,0:0:0:0:
109,192,23496,1,0,0:0:0:0:
475,192,23669,1,0,0:0:0:0:
256,192,23669,1,0,0:0:0:0:
329,192,23669,1,0,0:0:0:0:
109,192,23843,1,0,0:0:0:0:
402,192,24016,128,0,25404:0:0:0:0:
182,192,24016,1,0,0:0:0:0:
329,192,24016,1,0,0:0:0:0:
109,192,24190,1,0,0:0:0:0:
256,192,24363,1,0,0:0:0:0:
36,192,24363,1,0,0:0:0:0:
475,192,24363,1,0,0:0:0:0:
329,192,24450,1,0,0:0:0:0:
109,192,24537,1,0,0:0:0:0:
182,192,24623,1,0,0:0:0:0:
329,192,24710,1,0,0:0:0:0:
36,192,24710,1,0,0:0:0:0:
256,192,24797,1,0,0:0:0:0:
182,192,24883,1,0,0:0:0:0:
256,192,24970,1,0,0:0:0:0:
329,192,25057,1,0,0:0:0:0:
36,192,25057,1,0,0:0:0:0:
475,192,25057,1,0,0:0:0:0:
109,192,25143,1,0,0:0:0:0:
36,192,25230,1,0,0:0:0:0:
109,192,25404,128,0,26791:0:0:0:0:
329,192,25404,1,0,0:0:0:0:
182,192,25404,1,0,0:0:0:0:
475,192,25404,128,0,25750:0:0:0:0:
256,192,25577,1,0,0:0:0:0:
402,192,25750,1,0,0:0:0:0:
182,192,25750,1,0,0:0:0:0:
36,192,25750,128,0,26097:0:0:0:0:
329,192,25750,1,0,0:0:0:0:
256,192,25924,1,0,0:0:0:0:
182,192,26011,1,0,0:0:0:0:
182,192,26097,1,0,0:0:0:0:
402,192,26097,128,0,26444:0:0:0:0:
329,192,26097,1,0,0:0:0:0:
475,192,26271,1,0,0:0:0:0:
256,192,26271,1,0,0:0:0:0:
36,192,26444,1,0,0:0:0:0:
182,192,26444,1,0,0:0:0:0:
182,192,26617,1,0,0:0:0:0:
475,192,26617,128,0,26964:0:0:0:0:
256,192,26791,128,0,28178:0:0:0:0:
402,192,26791,1,0,0:0:0:0:
329,192,26791,1,0,0:0:0:0:
36,192,26964,1,0,0:0:0:0:
182,192,26964,128,0,27311:0:0:0:0:
36,192,27138,1,0,0:0:0:0:
329,192,27138,1,0,0:0:0:0:
109,192,27138,1,0,0:0:0:0:
475,192,27224,1,0,0:0:0:0:
402,192,27311,128,0,27831:0:0:0:0:
36,192,27398,1,0,0:0:0:0:
182,192,27485,1,0,0:0:0:0:
329,192,27485,1,0,0:0:0:0:
36,192,27571,1,0,0:0:0:0:
109,192,27658,1,0,0:0:0:0:
36,192,27745,1,0,0:0:0:0:
329,192,27831,1,0,0:0:0:0:
475,192,27831,1,0,0:0:0:0:
182,192,27831,1,0,0:0:0:0:
109,192,27918,1,0,0:0:0:0:
182,192,28005,1,0,0:0:0:0:
475,192,28178,128,0,29565:0:0:0:0:
329,192,28178,1,0,0:0:0:0:
36,192,28178,1,0,0:0:0:0:
109,192,28178,1,0,0:0:0:0:
402,192,28352,1,0,0:0:0:0:
256,192,28525,1,0,0:0:0:0:
36,192,28525,1,0,0:0:0:0:
182,192,28525,1,0,0:0:0:0:
329,192,28698,1,0,0:0:0:0:
109,192,28872,128,0,29565:0:0:0:0:
402,192,28872,1,0,0:0:0:0:
182,192,28872,1,0,0:0:0:0:
36,192,29045,1,0,0:0:0:0:
256,192,29045,1,0,0:0:0:0:
182,192,29219,1,0,0:0:0:0:
329,192,29219,1,0,0:0:0:0:
402,192,29219,1,0,0:0:0:0:
256,192,29392,1,0,0:0:0:0:
329,192,29565,128,0,30953:0:0:0:0:
36,192,29565,1,0,0:0:0:0:
182,192,29565,1,0,0:0:0:0:
256,192,29739,1,0,0:0:0:0:
182,192,29912,1,0,0:0:0:0:
402,192,29912,1,0,0:0:0:0:
475,192,29912,1,0,0:0:0:0:
256,192,29999,1,0,0:0:0:0:
36,192,30086,128,0,30953:0:0:0:0:
109,192,30086,1,0,0:0:0:0:
182,192,30172,1,0,0:0:0:0:
109,192,30259,1,0,0:0:0:0:
475,192,30259,1,0,0:0:0:0:
256,192,30433,1,0,0:0:0:0:
109,192,30519,1,0,0:0:0:0:
256,192,30606,1,0,0:0:0:0:
402,192,30606,1,0,0:0:0:0:
475,192,30606,1,0,0:0:0:0:
182,192,30779,1,0,0:0:0:0:
109,192,30953,1,0,0:0:0:0:
256,192,30953,1,0,0:0:0:0:
475,192,30953,128,0,32340:0:0:0:0:
402,192,30953,128,0,32340:0:0:0:0:
182,192,31126,1,0,0:0:0:0:
36,192,31300,1,0,0:0:0:0:
256,192,31300,1,0,0:0:0:0:
329,192,31300,1,0,0:0:0:0:
109,192,31473,1,0,0:0:0:0:
109,192,31560,1,0,0:0:0:0:
109,192,31646,1,0,0:0:0:0:
329,192,31646,1,0,0:0:0:0:
256,192,31733,1,0,0:0:0:0:
36,192,31820,1,0,0:0:0:0:
329,192,31820,1,0,0:0:0:0:
256,192,31993,1,0,0:0:0:0:
182,192,31993,1,0,0:0:0:0:
109,192,31993,1,0,0:0:0:0:
36,192,32167,1,0,0:0:0:0:
329,192,32167,1,0,0:0:0:0:
182,192,32340,128,0,32427:0:0:0:0:
256,192,32427,128,0,32513:0:0:0:0:
36,192,32427,1,0,0:0:0:0:
329,192,32513,128,0,32600:0:0:0:0:
109,192,32513,1,0,0:0:0:0:
402,192,32600,128,0,32687:0:0:0:0:
182,192,32600,1,0,0:0:0:0:
475,192,32687,128,0,32774:0:0:0:0:
256,192,32687,1,0,0:0:0:0:
182,192,32774,128,0,32860:0:0:0:0:
329,192,32774,1,0,0:0:0:0:
109,192,32860,128,0,32947:0:0:0:0:
402,192,32860,1,0,0:0:0:0:
36,192,32947,128,0,33034:0:0:0:0:
329,192,32947,1,0,0:0:0:0:
256,192,33034,1,0,0:0:0:0:
475,192,33034,128,0,33120:0:0:0:0:
182,192,33120,1,0,0:0:0:0:
402,192,33120,128,0,33207:0:0:0:0:
109,192,33207,1,0,0:0:0:0:
329,192,33207,128,0,33294:0:0:0:0:
36,192,33294,1,0,0:0:0:0:
256,192,33294,128,0,33380:0:0:0:0:
109,192,33380,1,0,0:0:0:0:
329,192,33380,128,0,33467:0:0:0:0:
182,192,33467,1,0,0:0:0:0:
402,192,33467,128,0,33554:0:0:0:0:
256,192,33554,1,0,0:0:0:0:
475,192,33554,128,0,33641:0:0:0:0:
329,192,33641,1,0,0:0:0:0:
402,192,33727,1,0,0:0:0:0:
36,192,33727,1,0,0:0:0:0:
109,192,33727,1,0,0:0:0:0:
256,192,33901,1,0,0:0:0:0:
475,192,33901,1,0,0:0:0:0:
329,192,34074,1,0,0:0:0:0:
182,192,34074,1,0,0:0:0:0:
475,192,34161,1,0,0:0:0:0:
256,192,34248,1,0,0:0:0:0:
109,192,34248,1,0,0:0:0:0:
36,192,34421,1,0,0:0:0:0:
182,192,34421,1,0,0:0:0:0:
402,192,34421,1,0,0:0:0:0:
109,192,34508,1,0,0:0:0:0:
256,192,34594,1,0,0:0:0:0:
402,192,34681,1,0,0:0:0:0:
182,192,34768,1,0,0:0:0:0:
36,192,34768,1,0,0:0:0:0:
109,192,34941,1,0,0:0:0:0:
329,192,34941,1,0,0:0:0:0:
256,192,35115,1,0,0:0:0:0:
475,192,35115,1,0,0:0:0:0:
36,192,35115,1,0,0:0:0:0:
182,192,35288,1,0,0:0:0:0:
329,192,35288,1,0,0:0:0:0:
402,192,35461,1,0,0:0:0:0:
109,192,35461,1,0,0:0:0:0:
256,192,35548,1,0,0:0:0:0:
36,192,35635,1,0,0:0:0:0:
475,192,35635,1,0,0:0:0:0:
182,192,35722,1,0,0:0:0:0:
329,192,35722,1,0,0:0:0:0:
402,192,35808,1,0,0:0:0:0:
109,192,35808,1,0,0:0:0:0:
256,192,35808,1,0,0:0:0:0:
36,192,35982,1,0,0:0:0:0:
475,192,35982,1,0,0:0:0:0:
182,192,36068,1,0,0:0:0:0:
329,192,36155,1,0,0:0:0:0:
475,192,36155,1,0,0:0:0:0:
109,192,36328,1,0,0:0:0:0:
256,192,36328,1,0,0:0:0:0:
36,192,36502,1,0,0:0:0:0:
182,192,36502,1,0,0:0:0:0:
402,192,36502,1,0,0:0:0:0:
109,192,36675,1,0,0:0:0:0:
329,192,36675,1,0,0:0:0:0:
402,192,36849,1,0,0:0:0:0:
36,192,36849,1,0,0:0:0:0:
36,192,37022,1,0,0:0:0:0:
402,192,37022,1,0,0:0:0:0:
36,192,37196,1,0,0:0:0:0:
402,192,37196,1,0,0:0:0:0:
182,192,37282,1,0,0:0:0:0:
329,192,37369,1,0,0:0:0:0:
182,192,37456,1,0,0:0:0:0:
36,192,37542,1,0,0:0:0:0:
475,192,37542,1,0,0:0:0:0:
36,192,37716,1,0,0:0:0:0:
475,192,37716,1,0,0:0:0:0:
256,192,37716,1,0,0:0:0:0:
109,192,37889,1,0,0:0:0:0:
402,192,37889,1,0,0:0:0:0:
329,192,37889,1,0,0:0:0:0:
256,192,38063,1,0,0:0:0:0:
36,192,38063,1,0,0:0:0:0:
475,192,38063,1,0,0:0:0:0:
36,192,38236,1,0,0:0:0:0:
475,192,38236,1,0,0:0:0:0:
256,192,38236,1,0,0:0:0:0:
109,192,38323,1,0,0:0:0:0:
182,192,38409,1,0,0:0:0:0:
402,192,38409,1,0,0:0:0:0:
256,192,38496,1,0,0:0:0:0:
329,192,38583,1,0,0:0:0:0:
475,192,38583,1,0,0:0:0:0:
36,192,38583,1,0,0:0:0:0:
36,192,38756,1,0,0:0:0:0:
329,192,38756,1,0,0:0:0:0:
182,192,38843,1,0,0:0:0:0:
36,192,38930,1,0,0:0:0:0:
329,192,38930,1,0,0:0:0:0:
109,192,39103,1,0,0:0:0:0:
402,192,39103,1,0,0:0:0:0:
256,192,39276,1,0,0:0:0:0:
36,192,39276,1,0,0:0:0:0:
475,192,39276,1,0,0:0:0:0:
109,192,39450,1,0,0:0:0:0:
329,192,39450,1,0,0:0:0:0:
256,192,39623,1,0,0:0:0:0:
475,192,39623,1,0,0:0:0:0:
36,192,39710,1,0,0:0:0:0:
329,192,39797,1,0,0:0:0:0:
182,192,39797,1,0,0:0:0:0:
109,192,39970,1,0,0:0:0:0:
256,192,39970,1,0,0:0:0:0:
475,192,39970,1,0,0:0:0:0:
182,192,40057,1,0,0:0:0:0:
329,192,40143,1,0,0:0:0:0:
36,192,40230,1,0,0:0:0:0:
182,192,40317,1,0,0:0:0:0:
402,192,40317,1,0,0:0:0:0:
475,192,40490,1,0,0:0:0:0:
109,192,40490,1,0,0:0:0:0:
36,192,40664,1,0,0:0:0:0:
256,192,40664,1,0,0:0:0:0:
402,192,40664,1,0,0:0:0:0:
182,192,40837,1,0,0:0:0:0:
329,192,40837,1,0,0:0:0:0:
256,192,41011,1,0,0:0:0:0:
109,192,41011,1,0,0:0:0:0:
402,192,41097,1,0,0:0:0:0:
182,192,41184,1,0,0:0:0:0:
475,192,41271,1,0,0:0:0:0:
36,192,41357,1,0,0:0:0:0:
256,192,41357,1,0,0:0:0:0:
329,192,41357,1,0,0:0:0:0:
109,192,41531,1,0,0:0:0:0:
402,192,41531,1,0,0:0:0:0:
256,192,41617,1,0,0:0:0:0:
475,192,41704,1,0,0:0:0:0:
36,192,41704,1,0,0:0:0:0:
182,192,41878,1,0,0:0:0:0:
329,192,41878,1,0,0:0:0:0:
256,192,42051,1,0,0:0:0:0:
109,192,42051,1,0,0:0:0:0:
402,192,42051,1,0,0:0:0:0:
36,192,42224,1,0,0:0:0:0:
475,192,42224,1,0,0:0:0:0:
182,192,42398,1,0,0:0:0:0:
329,192,42398,1,0,0:0:0:0:
256,192,42485,1,0,0:0:0:0:
109,192,42571,1,0,0:0:0:0:
402,192,42571,1,0,0:0:0:0:
36,192,42745,1,0,0:0:0:0:
475,192,42745,1,0,0:0:0:0:
256,192,42831,1,0,0:0:0:0:
36,192,42918,1,0,0:0:0:0:
475,192,42918,1,0,0:0:0:0:
256,192,43005,1,0,0:0:0:0:
109,192,43091,1,0,0:0:0:0:
402,192,43091,1,0,0:0:0:0:
256,192,43265,1,0,0:0:0:0:
36,192,43265,1,0,0:0:0:0:
475,192,43265,1,0,0:0:0:0:
256,192,43438,1,0,0:0:0:0:
36,192,43438,1,0,0:0:0:0:
109,192,43612,1,0,0:0:0:0:
329,192,43612,1,0,0:0:0:0:
475,192,43612,1,0,0:0:0:0:
402,192,43785,1,0,0:0:0:0:
36,192,43785,1,0,0:0:0:0:
182,192,43872,1,0,0:0:0:0:
36,192,43959,1,0,0:0:0:0:
402,192,43959,1,0,0:0:0:0:
256,192,44045,1,0,0:0:0:0:
109,192,44132,1,0,0:0:0:0:
475,192,44132,1,0,0:0:0:0:
36,192,44305,1,0,0:0:0:0:
329,192,44305,1,0,0:0:0:0:
182,192,44392,1,0,0:0:0:0:
402,192,44479,1,0,0:0:0:0:
36,192,44479,1,0,0:0:0:0:
109,192,44652,1,0,0:0:0:0:
256,192,44652,1,0,0:0:0:0:
475,192,44652,1,0,0:0:0:0:
36,192,44826,1,0,0:0:0:0:
182,192,44826,1,0,0:0:0:0:
329,192,44826,1,0,0:0:0:0:
402,192,44826,128,0,46039:0:0:0:0:
109,192,45172,1,0,0:0:0:0:
36,192,45346,1,0,0:0:0:0:
256,192,45346,1,0,0:0:0:0:
109,192,45519,1,0,0:0:0:0:
329,192,45519,1,0,0:0:0:0:
475,192,45519,1,0,0:0:0:0:
36,192,45693,1,0,0:0:0:0:
182,192,45779,1,0,0:0:0:0:
109,192,45866,1,0,0:0:0:0:
256,192,45866,1,0,0:0:0:0:
36,192,46039,128,0,47600:0:0:0:0:
182,192,46039,1,0,0:0:0:0:
329,192,46039,1,0,0:0:0:0:
475,192,46039,1,0,0:0:0:0:
109,192,46213,1,0,0:0:0:0:
256,192,46213,1,0,0:0:0:0:
182,192,46386,1,0,0:0:0:0:
329,192,46386,1,0,0:0:0:0:
475,192,46386,1,0,0:0:0:0:
256,192,46560,128,0,46906:0:0:0:0:
109,192,46560,1,0,0:0:0:0:
402,192,46560,1,0,0:0:0:0:
182,192,46646,1,0,0:0:0:0:
109,192,46733,1,0,0:0:0:0:
475,192,46733,1,0,0:0:0:0:
329,192,46906,128,0,47253:0:0:0:0:
182,192,46906,1,0,0:0:0:0:
402,192,46906,1,0,0:0:0:0:
475,192,46906,1,0,0:0:0:0:
109,192,47080,1,0,0:0:0:0:
182,192,47167,1,0,0:0:0:0:
402,192,47253,128,0,47600:0:0:0:0:
256,192,47253,1,0,0:0:0:0:
109,192,47253,1,0,0:0:0:0:
182,192,47340,1,0,0:0:0:0:
109,192,47427,1,0,0:0:0:0:
475,192,47600,128,0,48987:0:0:0:0:
256,192,47600,128,0,48987:0:0:0:0:
182,192,47600,1,0,0:0:0:0:
329,192,47600,1,0,0:0:0:0:
109,192,47774,1,0,0:0:0:0:
36,192,47947,1,0,0:0:0:0:
182,192,48034,1,0,0:0:0:0:
36,192,48120,1,0,0:0:0:0:
402,192,48120,1,0,0:0:0:0:
109,192,48294,1,0,0:0:0:0:
182,192,48294,1,0,0:0:0:0:
329,192,48294,1,0,0:0:0:0:
36,192,48467,1,0,0:0:0:0:
182,192,48554,1,0,0:0:0:0:
109,192,48641,1,0,0:0:0:0:
402,192,48641,1,0,0:0:0:0:
182,192,48814,1,0,0:0:0:0:
329,192,48814,1,0,0:0:0:0:
36,192,48987,128,0,50375:0:0:0:0:
109,192,48987,128,0,50375:0:0:0:0:
402,192,48987,1,0,0:0:0:0:
182,192,49161,1,0,0:0:0:0:
329,192,49161,1,0,0:0:0:0:
475,192,49161,1,0,0:0:0:0:
256,192,49334,1,0,0:0:0:0:
402,192,49421,1,0,0:0:0:0:
182,192,49508,1,0,0:0:0:0:
329,192,49508,1,0,0:0:0:0:
256,192,49681,1,0,0:0:0:0:
402,192,49681,1,0,0:0:0:0:
475,192,49681,1,0,0:0:0:0:
182,192,49854,1,0,0:0:0:0:
329,192,49941,1,0,0:0:0:0:
256,192,50028,1,0,0:0:0:0:
402,192,50028,1,0,0:0:0:0:
329,192,50115,1,0,0:0:0:0:
182,192,50201,1,0,0:0:0:0:
475,192,50375,128,0,51068:0:0:0:0:
256,192,50375,1,0,0:0:0:0:
402,192,50375,1,0,0:0:0:0:
329,192,50375,1,0,0:0:0:0:
182,192,50548,1,0,0:0:0:0:
36,192,50548,1,0,0:0:0:0:
109,192,50722,1,0,0:0:0:0:
329,192,50808,1,0,0:0:0:0:
36,192,50895,1,0,0:0:0:0:
182,192,50895,1,0,0:0:0:0:
329,192,51068,128,0,51762:0:0:0:0:
109,192,51068,1,0,0:0:0:0:
256,192,51068,1,0,0:0:0:0:
402,192,51068,1,0,0:0:0:0:
36,192,51242,1,0,0:0:0:0:
182,192,51328,1,0,0:0:0:0:
36,192,51415,1,0,0:0:0:0:
475,192,51415,1,0,0:0:0:0:
402,192,51415,1,0,0:0:0:0:
256,192,51589,1,0,0:0:0:0:
36,192,51589,1,0,0:0:0:0:
109,192,51762,128,0,52456:0:0:0:0:
182,192,51762,1,0,0:0:0:0:
475,192,51762,1,0,0:0:0:0:
402,192,51935,1,0,0:0:0:0:
256,192,51935,1,0,0:0:0:0:
36,192,52109,1,0,0:0:0:0:
329,192,52109,1,0,0:0:0:0:
182,192,52196,1,0,0:0:0:0:
475,192,52282,1,0,0:0:0:0:
329,192,52282,1,0,0:0:0:0:
402,192,52456,128,0,52976:0:0:0:0:
182,192,52456,1,0,0:0:0:0:
256,192,52456,1,0,0:0:0:0:
36,192,52456,1,0,0:0:0:0:
329,192,52629,1,0,0:0:0:0:
109,192,52716,1,0,0:0:0:0:
256,192,52802,1,0,0:0:0:0:
475,192,52802,1,0,0:0:0:0:
36,192,52976,128,0,53496:0:0:0:0:
329,192,52976,1,0,0:0:0:0:
109,192,52976,1,0,0:0:0:0:
182,192,53149,1,0,0:0:0:0:
475,192,53149,1,0,0:0:0:0:
256,192,53149,1,0,0:0:0:0:
109,192,53323,1,0,0:0:0:0:
329,192,53323,1,0,0:0:0:0:
256,192,53496,128,0,53843:0:0:0:0:
475,192,53496,1,0,0:0:0:0:
182,192,53496,1,0,0:0:0:0:
475,192,53669,1,0,0:0:0:0:
109,192,53669,1,0,0:0:0:0:
182,192,53843,128,0,54190:0:0:0:0:
475,192,53843,1,0,0:0:0:0:
36,192,53843,1,0,0:0:0:0:
329,192,54016,1,0,0:0:0:0:
475,192,54103,1,0,0:0:0:0:
109,192,54190,128,0,54537:0:0:0:0:
36,192,54190,1,0,0:0:0:0:
256,192,54190,1,0,0:0:0:0:
256,192,54363,1,0,0:0:0:0:
402,192,54363,1,0,0:0:0:0:
36,192,54537,128,0,55230:0:0:0:0:
182,192,54537,1,0,0:0:0:0:
329,192,54537,1,0,0:0:0:0:
256,192,54710,1,0,0:0:0:0:
475,192,54710,1,0,0:0:0:0:
256,192,54883,1,0,0:0:0:0:
402,192,54883,1,0,0:0:0:0:
109,192,55057,1,0,0:0:0:0:
329,192,55057,1,0,0:0:0:0:
475,192,55230,128,0,55924:0:0:0:0:
182,192,55230,1,0,0:0:0:0:
402,192,55230,1,0,0:0:0:0:
402,192,55404,1,0,0:0:0:0:
256,192,55404,1,0,0:0:0:0:
402,192,55577,1,0,0:0:0:0:
329,192,55577,1,0,0:0:0:0:
36,192,55750,1,0,0:0:0:0:
182,192,55750,1,0,0:0:0:0:
109,192,55924,1,0,0:0:0:0:
402,192,55924,1,0,0:0:0:0:
329,192,55924,1,0,0:0:0:0:
256,192,55924,128,0,56271:0:0:0:0:
36,192,56097,1,0,0:0:0:0:
182,192,56097,1,0,0:0:0:0:
402,192,56271,128,0,56617:0:0:0:0:
109,192,56271,1,0,0:0:0:0:
329,192,56271,1,0,0:0:0:0:
475,192,56271,1,0,0:0:0:0:
182,192,56444,1,0,0:0:0:0:
36,192,56444,1,0,0:0:0:0:
109,192,56617,128,0,56964:0:0:0:0:
256,192,56617,1,0,0:0:0:0:
329,192,56617,1,0,0:0:0:0:
475,192,56617,1,0,0:0:0:0:
182,192,56791,1,0,0:0:0:0:
36,192,56791,1,0,0:0:0:0:
329,192,56964,128,0,57311:0:0:0:0:
256,192,56964,1,0,0:0:0:0:
475,192,56964,1,0,0:0:0:0:
402,192,56964,1,0,0:0:0:0:
182,192,57138,1,0,0:0:0:0:
36,192,57138,1,0,0:0:0:0:
109,192,57311,1,0,0:0:0:0:
256,192,57311,1,0,0:0:0:0:
475,192,57311,1,0,0:0:0:0:
36,192,57485,1,0,0:0:0:0:
182,192,57485,1,0,0:0:0:0:
109,192,57658,1,0,0:0:0:0:
256,192,57658,1,0,0:0:0:0:
402,192,57658,1,0,0:0:0:0:
182,192,57831,1,0,0:0:0:0:
329,192,57831,1,0,0:0:0:0:
256,192,58005,1,0,0:0:0:0:
475,192,58005,1,0,0:0:0:0:
109,192,58005,1,0,0:0:0:0:
329,192,58091,1,0,0:0:0:0:
36,192,58091,1,0,0:0:0:0:
182,192,58178,1,0,0:0:0:0:
402,192,58178,1,0,0:0:0:0:
109,192,58265,1,0,0:0:0:0:
475,192,58265,1,0,0:0:0:0:
36,192,58352,1,0,0:0:0:0:
329,192,58352,1,0,0:0:0:0:
402,192,58438,1,0,0:0:0:0:
256,192,58438,1,0,0:0:0:0:
475,192,58525,1,0,0:0:0:0:
182,192,58525,1,0,0:0:0:0:
109,192,58612,1,0,0:0:0:0:
402,192,58698,1,0,0:0:0:0:
36,192,58698,1,0,0:0:0:0:
256,192,58698,1,0,0:0:0:0:
329,192,58698,128,0,58872:0:0:0:0:
475,192,58698,128,0,60086:0:0:0:0:
182,192,58872,128,0,59045:0:0:0:0:
109,192,58872,1,0,0:0:0:0:
256,192,58872,1,0,0:0:0:0:
402,192,59045,128,0,59219:0:0:0:0:
36,192,59045,1,0,0:0:0:0:
329,192,59045,1,0,0:0:0:0:
109,192,59219,128,0,59392:0:0:0:0:
182,192,59219,1,0,0:0:0:0:
36,192,59219,1,0,0:0:0:0:
256,192,59392,128,0,59565:0:0:0:0:
329,192,59392,1,0,0:0:0:0:
402,192,59392,1,0,0:0:0:0:
36,192,59565,128,0,59739:0:0:0:0:
182,192,59565,1,0,0:0:0:0:
402,192,59565,1,0,0:0:0:0:
329,192,59739,1,0,0:0:0:0:
109,192,59739,1,0,0:0:0:0:
182,192,59782,1,0,0:0:0:0:
256,192,59826,1,0,0:0:0:0:
402,192,59869,1,0,0:0:0:0:
329,192,59912,1,0,0:0:0:0:
256,192,59956,1,0,0:0:0:0:
182,192,59999,1,0,0:0:0:0:
109,192,60042,1,0,0:0:0:0:
36,192,60086,128,0,61300:0:0:0:0:
402,192,60086,1,0,0:0:0:0:
329,192,60086,1,0,0:0:0:0:
256,192,60086,128,0,60433:0:0:0:0:
182,192,60259,1,0,0:0:0:0:
475,192,60433,128,0,60779:0:0:0:0:
109,192,60433,1,0,0:0:0:0:
329,192,60433,1,0,0:0:0:0:
402,192,60433,1,0,0:0:0:0:
182,192,60606,1,0,0:0:0:0:
109,192,60779,128,0,61126:0:0:0:0:
256,192,60779,1,0,0:0:0:0:
402,192,60779,1,0,0:0:0:0:
329,192,60953,1,0,0:0:0:0:
182,192,61126,1,0,0:0:0:0:
402,192,61126,1,0,0:0:0:0:
475,192,61126,1,0,0:0:0:0:
402,192,61300,128,0,62860:0:0:0:0:
256,192,61300,1,0,0:0:0:0:
329,192,61473,1,0,0:0:0:0:
109,192,61473,1,0,0:0:0:0:
475,192,61473,1,0,0:0:0:0:
182,192,61646,1,0,0:0:0:0:
36,192,61820,1,0,0:0:0:0:
256,192,61820,1,0,0:0:0:0:
475,192,61820,1,0,0:0:0:0:
109,192,61993,1,0,0:0:0:0:
329,192,62080,1,0,0:0:0:0:
36,192,62167,1,0,0:0:0:0:
182,192,62167,1,0,0:0:0:0:
329,192,62253,1,0,0:0:0:0:
109,192,62340,1,0,0:0:0:0:
256,192,62513,1,0,0:0:0:0:
36,192,62513,1,0,0:0:0:0:
475,192,62513,1,0,0:0:0:0:
182,192,62687,1,0,0:0:0:0:
329,192,62860,1,0,0:0:0:0:
109,192,62860,1,0,0:0:0:0:
475,192,62860,128,0,64074:0:0:0:0:
256,192,62860,128,0,63207:0:0:0:0:
36,192,63034,1,0,0:0:0:0:
329,192,63207,128,0,63554:0:0:0:0:
109,192,63207,1,0,0:0:0:0:
402,192,63207,1,0,0:0:0:0:
182,192,63380,1,0,0:0:0:0:
402,192,63554,128,0,63901:0:0:0:0:
256,192,63554,1,0,0:0:0:0:
36,192,63554,1,0,0:0:0:0:
109,192,63727,1,0,0:0:0:0:
329,192,63901,1,0,0:0:0:0:
36,192,63901,1,0,0:0:0:0:
256,192,63901,1,0,0:0:0:0:
109,192,64074,128,0,64941:0:0:0:0:
182,192,64074,1,0,0:0:0:0:
256,192,64248,1,0,0:0:0:0:
402,192,64248,1,0,0:0:0:0:
329,192,64421,1,0,0:0:0:0:
475,192,64594,1,0,0:0:0:0:
402,192,64594,1,0,0:0:0:0:
36,192,64594,1,0,0:0:0:0:
256,192,64681,1,0,0:0:0:0:
475,192,64768,1,0,0:0:0:0:
182,192,64854,1,0,0:0:0:0:
329,192,64941,128,0,65635:0:0:0:0:
256,192,64941,1,0,0:0:0:0:
402,192,64941,1,0,0:0:0:0:
36,192,65028,1,0,0:0:0:0:
182,192,65115,1,0,0:0:0:0:
109,192,65288,1,0,0:0:0:0:
256,192,65288,1,0,0:0:0:0:
475,192,65288,1,0,0:0:0:0:
182,192,65461,1,0,0:0:0:0:
36,192,65635,128,0,67022:0:0:0:0:
109,192,65635,1,0,0:0:0:0:
402,192,65635,1,0,0:0:0:0:
256,192,65808,1,0,0:0:0:0:
475,192,65982,1,0,0:0:0:0:
402,192,65982,1,0,0:0:0:0:
182,192,65982,1,0,0:0:0:0:
329,192,66155,1,0,0:0:0:0:
109,192,66328,1,0,0:0:0:0:
475,192,66328,1,0,0:0:0:0:
256,192,66502,1,0,0:0:0:0:
402,192,66675,1,0,0:0:0:0:
182,192,66675,1,0,0:0:0:0:
475,192,66675,1,0,0:0:0:0:
109,192,66849,1,0,0:0:0:0:
256,192,67022,128,0,68409:0:0:0:0:
182,192,67022,1,0,0:0:0:0:
329,192,67022,1,0,0:0:0:0:
475,192,67196,1,0,0:0:0:0:
182,192,67369,1,0,0:0:0:0:
36,192,67369,1,0,0:0:0:0:
402,192,67369,1,0,0:0:0:0:
109,192,67456,1,0,0:0:0:0:
475,192,67542,1,0,0:0:0:0:
36,192,67629,1,0,0:0:0:0:
182,192,67716,1,0,0:0:0:0:
402,192,67716,1,0,0:0:0:0:
329,192,67889,1,0,0:0:0:0:
475,192,68063,1,0,0:0:0:0:
36,192,68063,1,0,0:0:0:0:
109,192,68063,1,0,0:0:0:0:
182,192,68236,1,0,0:0:0:0:
109,192,68323,1,0,0:0:0:0:
475,192,68409,128,0,69623:0:0:0:0:
36,192,68409,1,0,0:0:0:0:
402,192,68409,1,0,0:0:0:0:
182,192,68583,1,0,0:0:0:0:
109,192,68756,1,0,0:0:0:0:
256,192,68756,1,0,0:0:0:0:
402,192,68756,1,0,0:0:0:0:
36,192,68930,1,0,0:0:0:0:
182,192,69103,1,0,0:0:0:0:
329,192,69103,1,0,0:0:0:0:
256,192,69276,1,0,0:0:0:0:
329,192,69450,1,0,0:0:0:0:
36,192,69450,1,0,0:0:0:0:
182,192,69450,1,0,0:0:0:0:
109,192,69623,128,0,70664:0:0:0:0:
256,192,69623,1,0,0:0:0:0:
402,192,69623,1,0,0:0:0:0:
182,192,69970,1,0,0:0:0:0:
329,192,69970,1,0,0:0:0:0:
256,192,70317,1,0,0:0:0:0:
402,192,70317,1,0,0:0:0:0:
182,192,70664,1,0,0:0:0:0:
329,192,70664,1,0,0:0:0:0:
36,192,70837,1,0,0:0:0:0:
475,192,70837,1,0,0:0:0:0:
256,192,70837,1,0,0:0:0:0:
182,192,71011,1,0,0:0:0:0:
329,192,71011,1,0,0:0:0:0:
109,192,71097,1,0,0:0:0:0:
402,192,71097,1,0,0:0:0:0:
36,192,71184,1,0,0:0:0:0:
475,192,71184,1,0,0:0:0:0:
256,192,71184,128,0,71878:0:0:0:0:
182,192,71184,128,0,71531:0:0:0:0:
402,192,71357,1,0,0:0:0:0:
329,192,71531,128,0,71878:0:0:0:0:
36,192,71531,1,0,0:0:0:0:
109,192,71531,1,0,0:0:0:0:
475,192,71531,1,0,0:0:0:0:
402,192,71704,1,0,0:0:0:0:
182,192,71791,1,0,0:0:0:0:
475,192,71878,128,0,72571:0:0:0:0:
36,192,71878,128,0,72224:0:0:0:0:
109,192,71878,1,0,0:0:0:0:
402,192,71878,1,0,0:0:0:0:
182,192,72051,1,0,0:0:0:0:
256,192,72224,1,0,0:0:0:0:
109,192,72224,1,0,0:0:0:0:
402,192,72224,1,0,0:0:0:0:
329,192,72398,1,0,0:0:0:0:
402,192,72571,1,0,0:0:0:0:
182,192,72571,1,0,0:0:0:0:
36,192,72571,128,0,73265:0:0:0:0:
109,192,72745,1,0,0:0:0:0:
182,192,72918,1,0,0:0:0:0:
329,192,72918,1,0,0:0:0:0:
475,192,72918,1,0,0:0:0:0:
256,192,73091,1,0,0:0:0:0:
109,192,73178,1,0,0:0:0:0:
402,192,73265,128,0,73959:0:0:0:0:
256,192,73265,1,0,0:0:0:0:
475,192,73265,1,0,0:0:0:0:
109,192,73352,1,0,0:0:0:0:
329,192,73438,1,0,0:0:0:0:
182,192,73525,1,0,0:0:0:0:
36,192,73612,1,0,0:0:0:0:
256,192,73612,1,0,0:0:0:0:
475,192,73612,1,0,0:0:0:0:
182,192,73698,1,0,0:0:0:0:
329,192,73785,1,0,0:0:0:0:
256,192,73959,128,0,75172:0:0:0:0:
109,192,73959,1,0,0:0:0:0:
475,192,73959,1,0,0:0:0:0:
36,192,73959,128,0,74305:0:0:0:0:
329,192,74132,1,0,0:0:0:0:
182,192,74305,1,0,0:0:0:0:
475,192,74305,1,0,0:0:0:0:
402,192,74305,128,0,74652:0:0:0:0:
109,192,74479,1,0,0:0:0:0:
182,192,74652,128,0,74999:0:0:0:0:
36,192,74652,1,0,0:0:0:0:
329,192,74826,1,0,0:0:0:0:
402,192,74999,1,0,0:0:0:0:
36,192,74999,1,0,0:0:0:0:
329,192,75172,128,0,75519:0:0:0:0:
109,192,75172,128,0,76733:0:0:0:0:
475,192,75172,1,0,0:0:0:0:
36,192,75346,1,0,0:0:0:0:
182,192,75346,1,0,0:0:0:0:
402,192,75346,1,0,0:0:0:0:
402,192,75519,128,0,75693:0:0:0:0:
36,192,75606,1,0,0:0:0:0:
475,192,75693,128,0,75866:0:0:0:0:
256,192,75693,1,0,0:0:0:0:
182,192,75693,1,0,0:0:0:0:
36,192,75779,1,0,0:0:0:0:
256,192,75866,128,0,76386:0:0:0:0:
329,192,75866,1,0,0:0:0:0:
182,192,75953,1,0,0:0:0:0:
36,192,76039,1,0,0:0:0:0:
402,192,76039,1,0,0:0:0:0:
182,192,76126,1,0,0:0:0:0:
475,192,76213,1,0,0:0:0:0:
36,192,76386,1,0,0:0:0:0:
329,192,76386,1,0,0:0:0:0:
402,192,76386,1,0,0:0:0:0:
475,192,76473,1,0,0:0:0:0:
182,192,76560,1,0,0:0:0:0:
475,192,76733,1,0,0:0:0:0:
402,192,76733,128,0,77427:0:0:0:0:
256,192,76733,1,0,0:0:0:0:
36,192,76906,1,0,0:0:0:0:
109,192,77080,1,0,0:0:0:0:
182,192,77080,1,0,0:0:0:0:
329,192,77080,1,0,0:0:0:0:
256,192,77253,1,0,0:0:0:0:
36,192,77427,128,0,78120:0:0:0:0:
329,192,77427,1,0,0:0:0:0:
475,192,77427,1,0,0:0:0:0:
109,192,77600,1,0,0:0:0:0:
182,192,77774,1,0,0:0:0:0:
329,192,77774,1,0,0:0:0:0:
475,192,77774,1,0,0:0:0:0:
109,192,77947,1,0,0:0:0:0:
475,192,78120,128,0,78814:0:0:0:0:
256,192,78120,1,0,0:0:0:0:
402,192,78120,1,0,0:0:0:0:
329,192,78207,1,0,0:0:0:0:
109,192,78294,1,0,0:0:0:0:
402,192,78380,1,0,0:0:0:0:
256,192,78467,1,0,0:0:0:0:
329,192,78467,1,0,0:0:0:0:
36,192,78467,1,0,0:0:0:0:
182,192,78554,1,0,0:0:0:0:
109,192,78641,1,0,0:0:0:0:
36,192,78727,1,0,0:0:0:0:
182,192,78814,128,0,79508:0:0:0:0:
256,192,78814,1,0,0:0:0:0:
402,192,78814,1,0,0:0:0:0:
109,192,78901,1,0,0:0:0:0:
329,192,78987,1,0,0:0:0:0:
475,192,79074,1,0,0:0:0:0:
256,192,79161,1,0,0:0:0:0:
36,192,79161,1,0,0:0:0:0:
109,192,79161,1,0,0:0:0:0:
402,192,79248,1,0,0:0:0:0:
256,192,79334,1,0,0:0:0:0:
329,192,79421,1,0,0:0:0:0:
402,192,79508,1,0,0:0:0:0:
475,192,79508,1,0,0:0:0:0:
36,192,79508,1,0,0:0:0:0:
109,192,79508,128,0,81415:0:0:0:0:
256,192,79681,1,0,0:0:0:0:
182,192,79854,1,0,0:0:0:0:
329,192,79854,1,0,0:0:0:0:
475,192,79854,1,0,0:0:0:0:
256,192,80028,1,0,0:0:0:0:
36,192,80201,1,0,0:0:0:0:
402,192,80201,1,0,0:0:0:0:
182,192,80375,1,0,0:0:0:0:
329,192,80548,1,0,0:0:0:0:
475,192,80548,1,0,0:0:0:0:
36,192,80548,1,0,0:0:0:0:
256,192,80722,1,0,0:0:0:0:
402,192,80722,1,0,0:0:0:0:
182,192,80895,1,0,0:0:0:0:
475,192,80982,1,0,0:0:0:0:
256,192,81068,1,0,0:0:0:0:
402,192,81155,1,0,0:0:0:0:
182,192,81242,1,0,0:0:0:0:
329,192,81242,1,0,0:0:0:0:
475,192,81242,1,0,0:0:0:0:
256,192,81415,1,0,0:0:0:0:
402,192,81502,1,0,0:0:0:0:
36,192,81589,1,0,0:0:0:0:
182,192,81589,1,0,0:0:0:0:
329,192,81675,1,0,0:0:0:0:
109,192,81762,1,0,0:0:0:0:
256,192,81935,1,0,0:0:0:0:
402,192,81935,1,0,0:0:0:0:
36,192,81935,1,0,0:0:0:0:
329,192,82022,1,0,0:0:0:0:
109,192,82109,1,0,0:0:0:0:
329,192,82196,1,0,0:0:0:0:
475,192,82282,1,0,0:0:0:0:
36,192,82282,1,0,0:0:0:0:
182,192,82282,1,0,0:0:0:0:
402,192,82456,1,0,0:0:0:0:
256,192,82629,1,0,0:0:0:0:
109,192,82629,1,0,0:0:0:0:
475,192,82629,1,0,0:0:0:0:
36,192,82802,1,0,0:0:0:0:
329,192,82889,1,0,0:0:0:0:
182,192,82976,1,0,0:0:0:0:
475,192,82976,1,0,0:0:0:0:
109,192,83149,1,0,0:0:0:0:
256,192,83323,1,0,0:0:0:0:
402,192,83323,1,0,0:0:0:0:
36,192,83323,1,0,0:0:0:0:
329,192,83409,1,0,0:0:0:0:
109,192,83496,1,0,0:0:0:0:
475,192,83496,128,0,83843:0:0:0:0:
182,192,83496,1,0,0:0:0:0:
402,192,83496,1,0,0:0:0:0:
402,192,83843,1,0,0:0:0:0:
36,192,83843,1,0,0:0:0:0:
109,192,84016,1,0,0:0:0:0:
256,192,84016,1,0,0:0:0:0:
329,192,84016,1,0,0:0:0:0:
182,192,84103,1,0,0:0:0:0:
475,192,84190,1,0,0:0:0:0:
36,192,84276,1,0,0:0:0:0:
329,192,84363,1,0,0:0:0:0:
182,192,84363,1,0,0:0:0:0:
475,192,84450,1,0,0:0:0:0:
256,192,84537,1,0,0:0:0:0:
109,192,84623,1,0,0:0:0:0:
402,192,84710,1,0,0:0:0:0:
475,192,84710,1,0,0:0:0:0:
329,192,84710,1,0,0:0:0:0:
182,192,84797,1,0,0:0:0:0:
36,192,84883,1,0,0:0:0:0:
256,192,84970,1,0,0:0:0:0:
109,192,85057,1,0,0:0:0:0:
475,192,85057,128,0,85230:0:0:0:0:
329,192,85057,1,0,0:0:0:0:
402,192,85230,128,0,85404:0:0:0:0:
256,192,85230,1,0,0:0:0:0:
36,192,85230,1,0,0:0:0:0:
329,192,85404,128,0,85577:0:0:0:0:
182,192,85404,1,0,0:0:0:0:
256,192,85577,128,0,85750:0:0:0:0:
109,192,85577,1,0,0:0:0:0:
329,192,85750,128,0,85924:0:0:0:0:
36,192,85750,1,0,0:0:0:0:
256,192,85924,128,0,86097:0:0:0:0:
475,192,85924,1,0,0:0:0:0:
182,192,86097,128,0,86271:0:0:0:0:
402,192,86097,1,0,0:0:0:0:
109,192,86271,128,0,86444:0:0:0:0:
329,192,86271,1,0,0:0:0:0:
182,192,86444,128,0,86617:0:0:0:0:
402,192,86444,1,0,0:0:0:0:
256,192,86444,1,0,0:0:0:0:
109,192,86617,128,0,86791:0:0:0:0:
475,192,86617,1,0,0:0:0:0:
329,192,86617,1,0,0:0:0:0:
36,192,86791,128,0,86964:0:0:0:0:
256,192,86791,1,0,0:0:0:0:
182,192,86964,128,0,87138:0:0:0:0:
475,192,86964,1,0,0:0:0:0:
329,192,87138,128,0,87311:0:0:0:0:
36,192,87138,1,0,0:0:0:0:
475,192,87311,128,0,87485:0:0:0:0:
109,192,87311,1,0,0:0:0:0:
256,192,87485,128,0,87658:0:0:0:0:
182,192,87485,1,0,0:0:0:0:
36,192,87658,128,0,87831:0:0:0:0:
109,192,87658,1,0,0:0:0:0:
402,192,87831,128,0,88005:0:0:0:0:
329,192,87831,1,0,0:0:0:0:
256,192,87831,1,0,0:0:0:0:
182,192,88005,128,0,88178:0:0:0:0:
109,192,88005,1,0,0:0:0:0:
36,192,88005,1,0,0:0:0:0:
475,192,88178,128,0,88352:0:0:0:0:
256,192,88178,1,0,0:0:0:0:
109,192,88352,128,0,88525:0:0:0:0:
329,192,88352,1,0,0:0:0:0:
329,192,88525,128,0,88698:0:0:0:0:
256,192,88525,1,0,0:0:0:0:
402,192,88525,1,0,0:0:0:0:
36,192,88698,128,0,88872:0:0:0:0:
182,192,88698,1,0,0:0:0:0:
475,192,88698,1,0,0:0:0:0:
256,192,88872,128,0,89045:0:0:0:0:
109,192,88872,1,0,0:0:0:0:
402,192,88872,1,0,0:0:0:0:
402,192,89045,128,0,89565:0:0:0:0:
109,192,89045,128,0,89565:0:0:0:0:
329,192,89045,1,0,0:0:0:0:
182,192,89045,1,0,0:0:0:0:
