osu file format v14

[General]
AudioFilename: [ Gayver Anime - Soundtrack 001 ( ) ].mp3
AudioLeadIn: 0
PreviewTime: -1
Countdown: 1
SampleSet: None
StackLeniency: 0.7
Mode: 3
LetterboxInBreaks: 1
SpecialStyle: 0
WidescreenStoryboard: 0

[Editor]
DistanceSpacing: 0.9
BeatDivisor: 4
GridSize: 32
TimelineZoom: 1.8

[Metadata]
Title:Guyver OP
TitleUnicode:Guyver OP
Artist:
ArtistUnicode:
Creator:HIKKA22
Version:Normal
Source:
Tags:
BeatmapID:1278545
BeatmapSetID:605139

[Difficulty]
HPDrainRate:6
CircleSize:5
OverallDifficulty:6
ApproachRate:5
SliderMultiplier:1.4
SliderTickRate:1

[Events]
//Background and Video events
//Break Periods
//Storyboard Layer 0 (Background)
//Storyboard Layer 1 (Fail)
//Storyboard Layer 2 (Pass)
//Storyboard Layer 3 (Foreground)
//Storyboard Sound Samples

[TimingPoints]
1577.19437875205,217.391304347826,4,1,0,100,1,0

[HitObjects]
256,192,1522,128,0,3751:0:0:0:0:
358,192,4294,128,0,5272:0:0:0:0:
256,192,5653,128,0,6631:0:0:0:0:
153,192,6957,128,0,11685:0:0:0:0:
256,192,12338,128,0,14620:0:0:0:0:
358,192,14946,128,0,16142:0:0:0:0:
256,192,16305,128,0,17338:0:0:0:0:
153,192,17609,128,0,20979:0:0:0:0:
256,192,22990,1,0,0:0:0:0:
153,192,23642,1,0,0:0:0:0:
256,192,24294,1,0,0:0:0:0:
358,192,24946,1,0,0:0:0:0:
256,192,25598,1,0,0:0:0:0:
153,192,25925,1,0,0:0:0:0:
256,192,28316,1,0,0:0:0:0:
153,192,28914,1,0,0:0:0:0:
256,192,29620,1,0,0:0:0:0:
358,192,30272,1,0,0:0:0:0:
256,192,30925,1,0,0:0:0:0:
153,192,31903,1,0,0:0:0:0:
256,192,32990,1,0,0:0:0:0:
358,192,33153,1,0,0:0:0:0:
460,192,33588,1,0,0:0:0:0:
358,192,34294,1,0,0:0:0:0:
256,192,34892,1,0,0:0:0:0:
153,192,35598,1,0,0:0:0:0:
51,192,36251,1,0,0:0:0:0:
153,192,36577,1,0,0:0:0:0:
256,192,36740,1,0,0:0:0:0:
256,192,38914,1,0,0:0:0:0:
358,192,39566,1,0,0:0:0:0:
460,192,40218,1,0,0:0:0:0:
358,192,40925,1,0,0:0:0:0:
256,192,41577,1,0,0:0:0:0:
153,192,41903,1,0,0:0:0:0:
256,192,42066,1,0,0:0:0:0:
153,192,42609,1,0,0:0:0:0:
256,192,42935,1,0,0:0:0:0:
51,192,43588,1,0,0:0:0:0:
153,192,44294,1,0,0:0:0:0:
256,192,44566,1,0,0:0:0:0:
358,192,45218,1,0,0:0:0:0:
460,192,45598,1,0,0:0:0:0:
256,192,46305,1,0,0:0:0:0:
153,192,46957,1,0,0:0:0:0:
256,192,47283,1,0,0:0:0:0:
460,192,47990,1,0,0:0:0:0:
358,192,48316,1,0,0:0:0:0:
256,192,48588,1,0,0:0:0:0:
153,192,48968,1,0,0:0:0:0:
256,192,49294,1,0,0:0:0:0:
358,192,49620,1,0,0:0:0:0:
460,192,50001,1,0,0:0:0:0:
153,192,50707,1,0,0:0:0:0:
256,192,51033,1,0,0:0:0:0:
358,192,51359,1,0,0:0:0:0:
460,192,51631,1,0,0:0:0:0:
358,192,51957,1,0,0:0:0:0:
256,192,52283,1,0,0:0:0:0:
256,192,53859,1,0,0:0:0:0:
256,192,54566,1,0,0:0:0:0:
256,192,55218,1,0,0:0:0:0:
256,192,56631,1,0,0:0:0:0:
256,192,56957,1,0,0:0:0:0:
153,192,57283,1,0,0:0:0:0:
256,192,57609,1,0,0:0:0:0:
51,192,58261,1,0,0:0:0:0:
460,192,59566,1,0,0:0:0:0:
153,192,60327,1,0,0:0:0:0:
153,192,60653,1,0,0:0:0:0:
358,192,60979,1,0,0:0:0:0:
460,192,61251,1,0,0:0:0:0:
256,192,61631,1,0,0:0:0:0:
256,192,61957,1,0,0:0:0:0:
51,192,62338,1,0,0:0:0:0:
51,192,62664,1,0,0:0:0:0:
153,192,62990,1,0,0:0:0:0:
256,192,63316,1,0,0:0:0:0:
358,192,63696,1,0,0:0:0:0:
256,192,65001,1,0,0:0:0:0:
153,192,66305,1,0,0:0:0:0:
256,192,68316,1,0,0:0:0:0:
358,192,68642,1,0,0:0:0:0:
460,192,68968,1,0,0:0:0:0:
256,192,70272,1,0,0:0:0:0:
256,192,71631,1,0,0:0:0:0:
256,192,72935,1,0,0:0:0:0:
153,192,74294,1,0,0:0:0:0:
358,192,75598,1,0,0:0:0:0:
460,192,76957,1,0,0:0:0:0:
256,192,78316,1,0,0:0:0:0:
153,192,78642,1,0,0:0:0:0:
256,192,78968,1,0,0:0:0:0:
358,192,79566,1,0,0:0:0:0:
460,192,80272,1,0,0:0:0:0:
358,192,80598,1,0,0:0:0:0:
256,192,80925,1,0,0:0:0:0:
153,192,81305,1,0,0:0:0:0:
256,192,81631,1,0,0:0:0:0:
358,192,82283,1,0,0:0:0:0:
460,192,82935,1,0,0:0:0:0:
358,192,83588,1,0,0:0:0:0:
256,192,84240,1,0,0:0:0:0:
153,192,84620,1,0,0:0:0:0:
