osu file format v9

[General]
AudioFilename: 3rd eye.mp3
AudioLeadIn: 1000
PreviewTime: 41001
Countdown: 1
SampleSet: Soft
StackLeniency: 0.6
Mode: 0
LetterboxInBreaks: 1

[Editor]
DistanceSpacing: 1
BeatDivisor: 4
GridSize: 8

[Metadata]
Title:Shoujo Satori ~ 3rd eye
Artist:=NeutraL=
Creator:Crazy Jay
Version:Normal
Source:Touhou
Tags:Komeiji Satori Affect a mind Clonesoldier

[Difficulty]
HPDrainRate:3
CircleSize:4
OverallDifficulty:4
ApproachRate:4
SliderMultiplier:1.2
SliderTickRate:2

[Events]
//Background and Video events
0,0,"69091945c118326e500ffe5a.jpg"
//Break Periods
2,54194,65647
//Storyboard Layer 0 (Background)
//Storyboard Layer 1 (Fail)
//Storyboard Layer 2 (Pass)
//Storyboard Layer 3 (Foreground)
//Storyboard Sound Samples
//Background Colour Transformations
3,100,163,162,255

[TimingPoints]
1292,405.405405405405,4,2,1,80,1,0
41021,-200,4,2,1,80,0,0
53994,-100,4,2,1,80,0,0

[Colours]
Combo1 : 255,255,255
Combo2 : 255,6,131
Combo3 : 0,0,232
Combo4 : 255,104,255
Combo5 : 255,128,64

[HitObjects]
256,64,1292,2,0,B|448:64,2,180,4|0|0
256,192,2913,2,0,B|64:192,2,180,4|0|0
352,272,4535,2,0,B|464:304|512:208|464:112,2,240,4|4|4
160,320,6967,1,4
56,256,7373,1,4
104,144,7778,6,0,B|112:72|208:64,1,120,4|8
215,184,8589,2,0,B|259:221|329:201,1,120,0|8
424,152,9400,2,0,B|438:95|424:23,2,120,0|8|0
304,184,10616,1,8
352,288,11021,6,0,B|318:350|224:328,3,120,0|8|0|8
128,288,12643,2,0,B|162:226|256:248,3,120,0|8|0|8
360,272,14264,6,0,B|408:216|368:136,1,120,4|8
296,80,15075,2,0,B|352:24,2,60,0|0|8
192,144,15886,2,0,B|140:99|160:24,2,120,0|8|0
312,176,17102,1,8
312,176,17508,6,0,B|352:240|304:304,1,120,0|8
190,233,18319,2,0,B|163:192|188:135,2,90,0|0|0
168,296,19129,1,0
288,344,19535,1,8
344,240,19940,1,0
464,288,20346,2,0,B|504:224|456:160,1,120,8|0
336,160,21156,5,8
232,240,21562,2,0,B|152:248|120:176,2,120,0|8|0
192,104,22778,1,8
304,48,23183,2,0,B|323:108|328:176,1,120,0|8
360,280,23994,5,0
256,200,24400,1,8
152,280,24805,1,0
256,200,25210,2,0,B|256:56,2,120,8|0|8
256,336,26427,1,0
256,336,26832,1,8
360,248,27237,6,0,B|408:176,2,60,4|0|8
256,168,28048,2,0,B|256:240,2,60,0|0|8
152,248,28859,2,0,B|104:176,2,60,0|0|8
256,336,29670,1,0
256,336,30075,1,8
312,216,30481,6,0,B|256:181|197:216,3,120,0|8|0|8
112,120,32102,1,0
192,32,32508,1,8
320,32,32913,1,0
400,120,33319,1,8
349,232,33724,6,0,B|301:184|325:112,1,120,0|8
189,120,34535,2,0,B|210:182|162:230,1,120,0|8
256,56,35548,1,0
256,56,36156,1,0
256,56,36967,6,0,B|152:48|96:144,1,180,4|4
256,192,38183,1,8
256,328,38589,2,0,B|360:336|416:240,1,180,4|4
256,192,39805,1,8
160,280,41021,6,0,B|96:256|112:176,1,120,4|0
144,128,42237,1,8
200,168,42643,2,0,B|336:168,1,120
376,192,43859,6,0,B|392:224|392:256,1,60,8|0
344,304,44670,2,0,B|328:272|328:240,1,60,8|0
312,184,45481,1,8
304,120,45886,2,0,B|288:88|256:75|224:88|205:124,1,120
200,184,47102,1,8
256,224,47508,6,0,B|256:264|240:288,1,60,0|8
112,312,48724,1,8
88,248,49129,2,0,B|88:208|104:184,1,60,0|8
208,112,50346,1,8
264,152,50751,2,0,B|292:168|320:176,1,60,0|8
384,200,51562,2,0,B|397:238|400:264,1,60,0|8
256,192,52373,12,4,53994
256,192,66967,12,4,73454
248,128,74264,2,0,B|256:160|264:200,2,60,0|0|8
120,88,75075,2,0,B|72:128|64:192,1,120,0|8
184,200,75886,1,0
184,200,76291,1,8
120,304,76697,6,0,B|256:304,1,120,0|8
344,240,77508,2,0,B|448:240,2,90
272,240,78319,1,0
80,144,79535,1,8
80,144,79940,6,0,B|60:212|104:272,1,120,4|8
208,208,80751,2,0,B|328:208,1,120,0|8
424,280,81562,2,0,B|460:233|440:165,2,120,0|8|0
208,128,83183,6,0,B|152:128|88:112,2,120,0|8|0
312,64,84400,1,8
312,64,84805,2,0,B|344:120|368:200,1,120,0|8
416,144,85413,2,0,B|407:242|384:336,1,180,0|8
264,328,86427,6,0,B|280:280|280:208,1,120,4|8
168,240,87237,2,0,B|101:231|48:216,1,120,0|8
24,96,88048,1,0
128,32,88454,2,0,B|195:41|248:56,1,120,8|0
448,192,89670,5,0
360,272,90075,1,8
320,160,90481,2,0,B|317:102|265:81|224:96,1,120,0|8
176,192,91291,2,0,B|160:252|193:260|176:312,3,120,0|8|0|8
360,360,92913,6,0,B|403:314|392:248,1,120,0|8
336,248,93521,2,0,B|274:228|253:157|307:96,1,180,0|8
408,152,94535,2,0,B|456:112|464:48,2,120,0|8|0
232,120,95954,5,0
176,112,96156,2,0,B|104:120|64:176,1,120,0|8
81,278,96967,1,0
179,349,97373,1,8
272,288,97778,2,0,B|334:267|328:320|400:280,1,120,0|8
320,184,98589,2,0,B|258:163|264:216|192:176,1,120,0|8
128,88,99400,6,0,B|240:32|336:128|303:245|160:256,1,360,4|8
64,216,101021,6,0,B|256:96|215:295|408:168,1,360,0|8
384,296,102643,6,0,B|272:344|118:269|184:88,1,360,0|8
272,40,104264,6,0,B|333:30|400:32,2,120,0|8|0
464,112,105886,6,0,B|461:216|362:267,1,180
336,216,106697,1,0
256,304,107102,1,8
176,216,107508,1,0
136,259,107710,2,0,B|51:216|48:112,1,180
360,168,109535,5,8
256,336,110346,1,8
152,168,111156,1,8
256,224,111562,1,0
256,224,111967,1,8
312,120,112373,6,0,B|320:56|288:-24,3,120,4|8|0|8
200,72,113994,6,0,B|192:136|224:216,3,120,4|8|0|8
256,192,115413,12,0,116832
360,328,117237,6,0,B|423:297|424:216,1,120,4|8
328,160,118048,1,0
328,160,118454,2,0,B|280:204|200:192,1,120,8|0
120,128,119264,2,0,B|59:164|48:240,1,120,8|0
112,328,120075,5,8
112,328,120481,2,0,B|177:336|256:312,1,120,0|8
344,280,121291,2,0,B|324:220|337:153,1,120,0|8
216,184,122102,2,0,B|102:217|57:114|117:49,1,240
360,64,123724,6,0,B|400:176,1,120,0|8
360,224,124332,1,0
256,72,124940,1,8
168,152,125346,1,0
256,240,125751,1,8
208,272,125954,2,0,B|148:274|80:272,1,120
48,240,126562,1,8
48,240,126967,6,0,B|27:172|80:104,1,120,0|8
120,152,127575,2,0,B|175:185|264:168|297:105,1,180,0|8
184,56,128589,2,0,B|155:152|212:234|320:240,1,240
408,192,129805,1,8
408,192,130008,1,8
408,192,130210,6,0,B|456:240|448:320,1,120,4|8
392,328,130819,2,0,B|343:346|264:336,1,120
232,296,131427,2,0,B|256:240|248:176,1,120,8|0
144,120,132237,2,0,B|64:120,2,60,8|0|0
213,45,133048,5,8
312,80,133454,2,0,B|344:136|328:208,1,120,4|8
280,176,134062,2,0,B|288:240|240:296,1,120
208,256,134670,2,0,B|178:315|112:336,2,120,8|0|8
168,56,136291,1,8
264,112,136697,6,0,B|310:82|332:119|384:80,1,120,0|8
424,48,137305,2,0,B|484:92|480:168,1,120
476,196,137913,1,8
476,196,138319,2,0,B|456:264|400:296,1,120,0|8
368,248,138927,2,0,B|224:272,1,120
192,280,139535,1,8
152,168,139940,6,0,B|211:204|288:200,1,120,0|8
296,256,140548,2,0,B|365:252|408:184,1,120
424,144,141156,1,8
256,192,141562,12,4,143183
104,96,143994,6,0,B|72:153|82:215,2,120,0|8|0
216,144,145210,2,0,B|288:128,1,60,8|0
384,184,145819,1,0
384,184,146021,1,8
312,280,146427,6,0,B|260:245|248:177,1,120,0|8
248,181,147237,2,0,B|200:224|136:224,1,120,0|8
139,223,148048,6,0,B|80:206|48:144,1,120,0|8
24,80,148656,1,0
144,32,149062,5,0
144,32,149264,1,8
248,104,149670,5,0
176,208,150075,2,0,B|168:240|144:272,2,60,8|0|0
296,224,150886,1,8
376,312,151291,1,0
448,216,151697,2,0,B|480:224|512:248,2,60,8|0|0
416,104,152508,1,8
312,48,152913,6,0,B|256:32|168:32,1,120,0|8
136,48,153521,2,0,B|78:88|81:167|104:224,1,180,0|8
216,208,154535,2,0,B|248:264|232:352,2,120,0|8|0
128,288,155751,1,8
128,288,155954,1,0
128,288,156156,6,0,B|77:245|64:176,1,120,4|8
112,72,156967,1,0
224,120,157373,2,0,B|288:112|352:64,1,120,8|0
448,120,158183,2,0,B|480:256|400:352,1,240,8|8
280,336,159400,6,0,B|152:336,1,120,0|8
104,240,160210,2,0,B|232:240,1,120,0|8
336,192,161021,2,0,B|358:122|320:48|252:43|184:72,2,240
216,176,163048,5,8
216,176,163251,2,0,B|216:360,1,180,0|8
328,304,164264,1,0
432,248,164670,1,8
432,248,164873,2,0,B|432:56,1,180,0|8
312,56,165886,6,0,B|328:124|320:192,1,120,0|8
190,208,166697,2,0,B|184:260|200:328,1,120,0|8
320,312,167508,2,0,B|405:317|459:278|464:185|428:134,1,240
256,192,169129,12,4,175616
