osu file format v13

[General]
AudioFilename: Saotome no Yuugi soshite Ryuugi.mp3
AudioLeadIn: 0
PreviewTime: 236433
Countdown: 0
SampleSet: Soft
StackLeniency: 0.6
Mode: 0
LetterboxInBreaks: 1
WidescreenStoryboard: 0

[Editor]
Bookmarks: 10394,27933,57471,81471,115625,146087,170087,205164,232856,236433
DistanceSpacing: 1
BeatDivisor: 4
GridSize: 4
TimelineZoom: 1.3

[Metadata]
Title:Saotome no Yuugi soshite Ryuugi
TitleUnicode:早乙女の遊戯そして流儀
Artist:=NeutraL=
ArtistUnicode:=NeutraL=
Creator:PEPOTTI
Version:Normal
Source:Touhou
Tags:コツキミヤ kotsuki miya SENTIVE 桜華結界 -Perfect Cherry Blossom- 東方紅魔郷 u.n owen was her flandre scarlet
BeatmapID:439846
BeatmapSetID:183623

[Difficulty]
HPDrainRate:4
CircleSize:3.5
OverallDifficulty:4
ApproachRate:5
SliderMultiplier:1.2
SliderTickRate:1

[Events]
//Background and Video events
0,0,"Scarlet SisterS.jpg",0,0
//Break Periods
2,105671,115348
2,194087,205810
//Storyboard Layer 0 (Background)
//Storyboard Layer 1 (Fail)
//Storyboard Layer 2 (Pass)
//Storyboard Layer 3 (Foreground)
//Storyboard Sound Samples

[TimingPoints]
241,461.538461538462,4,2,0,70,1,0
11202,-100,4,2,0,30,0,0
13048,-100,4,2,0,50,0,0
13971,-100,4,2,0,60,0,0
14894,-100,4,2,0,70,0,0
29779,-100,4,2,0,70,0,1
42817,-100,4,2,0,50,0,1
44433,-100,4,2,0,70,0,1
57587,-100,4,2,0,50,0,1
58741,-100,4,1,1,35,0,1
58971,-100,4,2,0,50,0,1
59317,-100,4,2,0,70,0,0
62433,-100,4,1,1,40,0,0
62664,-100,4,2,0,70,0,0
64625,-100,4,2,0,50,0,0
66010,-100,4,1,1,45,0,0
66471,-100,4,2,0,70,0,0
69817,-100,4,1,1,40,0,0
70048,-100,4,2,0,70,0,0
73394,-100,4,1,1,40,0,0
73856,-100,4,2,0,70,0,0
77202,-100,4,1,1,40,0,0
77433,-100,4,2,0,70,0,0
79394,-100,4,2,0,55,0,0
80779,-100,4,1,1,50,0,0
81241,-100,4,2,0,70,0,0
84587,-100,4,1,1,40,0,0
84817,-100,4,2,0,70,0,0
86779,-100,4,2,0,50,0,0
88279,-100,4,1,1,30,0,0
88510,-100,4,2,0,30,0,0
88741,-100,4,2,0,70,0,0
91856,-100,4,1,1,40,0,0
92317,-100,4,2,0,70,0,0
95548,-100,4,1,1,40,0,0
96010,-100,4,2,0,70,0,0
99241,-100,4,1,1,40,0,0
99702,-100,4,2,0,70,0,0
116087,-100,4,2,0,90,0,0
117702,-100,4,1,1,30,0,0
118394,-100,4,2,0,70,0,1
131433,-100,4,2,0,50,0,1
133048,-100,4,2,0,70,0,1
146202,-100,4,2,0,50,0,1
147356,-100,4,1,1,35,0,1
147587,-100,4,2,0,50,0,1
147933,-100,4,2,0,70,0,0
150933,-100,4,1,1,40,0,0
151394,-100,4,2,0,70,0,0
154625,-100,4,1,1,40,0,0
155087,-100,4,2,0,70,0,0
158317,-100,4,1,1,40,0,0
158779,-100,4,2,0,70,0,0
162010,-100,4,1,1,40,0,0
162471,-100,4,2,0,70,0,0
165817,-100,4,1,1,40,0,0
166048,-100,4,2,0,70,0,0
168010,-100,4,2,0,50,0,0
169394,-100,4,1,1,45,0,0
169856,-100,4,2,0,70,0,0
173202,-100,4,1,1,40,0,0
173433,-100,4,2,0,70,0,0
175394,-100,4,2,0,50,0,0
176894,-100,4,1,1,30,0,0
177125,-100,4,2,0,30,0,0
177356,-100,4,2,0,70,0,0
180471,-100,4,1,1,40,0,0
180933,-100,4,2,0,70,0,0
184164,-100,4,1,1,40,0,0
184625,-100,4,2,0,70,0,0
187856,-100,4,1,1,40,0,0
188317,-100,4,2,0,70,0,0
192010,-100,4,2,0,50,0,0
193856,-100,4,2,0,70,0,0
210125,-100,4,1,1,40,0,0
210356,-100,4,2,0,70,0,0
213702,-100,4,1,1,40,0,0
214164,-100,4,2,0,70,0,0
217510,-100,4,1,1,40,0,0
217741,-100,4,2,0,70,0,0
219817,-100,4,2,0,90,0,0
221317,-133.333333333333,4,2,0,30,0,0
227779,-133.333333333333,4,2,0,50,0,0
231471,-133.333333333333,4,2,0,60,0,0
232625,-100,4,2,0,70,0,0
234587,-100,4,2,0,85,0,0
234817,-100,4,2,0,75,0,0
236548,-100,4,2,0,80,0,1
249587,-100,4,2,0,60,0,1
250741,-100,4,2,0,70,0,1
251317,-100,4,2,0,70,0,0
256971,-100,4,2,0,75,0,0
258587,-100,4,2,0,80,0,0

[Colours]
Combo1 : 222,189,114
Combo2 : 227,108,135
Combo3 : 166,135,245
Combo4 : 233,158,230

[HitObjects]
261,14,11317,6,2,L|237:70,3,60
209,122,12240,2,2,L|149:129,3,60
92,136,13163,6,2,L|73:192,3,60
56,248,14087,2,2,L|80:302,3,60
108,356,15010,6,0,P|164:368|232:352,1,120,4|8,0:0|0:0,0:0:0:0:
256,304,15702,1,0,0:0:0:0:
256,304,15933,2,0,P|314:291|372:303,1,120,2|8,0:0|0:0,0:0:0:0:
436,200,16856,6,0,P|384:176|332:128,1,120,2|8,0:0|0:0,0:0:0:0:
316,80,17548,1,0,0:0:0:0:
316,80,17779,2,0,L|196:80,1,120,2|8,0:0|0:0,0:0:0:0:
88,28,18702,6,0,P|64:80|88:136,1,120,2|8,0:0|0:0,0:0:0:0:
136,172,19394,1,0,0:0:0:0:
136,172,19625,2,0,P|160:224|136:280,1,120,2|8,0:0|0:0,0:0:0:0:
28,228,20548,5,4,0:0:0:0:
52,112,21010,1,8,0:0:0:0:
136,28,21471,1,4,0:0:0:0:
256,12,21933,1,8,0:0:0:0:
376,28,22394,6,0,P|424:64|456:116,1,120,4|8,0:0|0:0,0:0:0:0:
468,172,23087,1,0,0:0:0:0:
468,172,23317,2,0,L|444:296,1,120,2|8,0:0|0:0,0:0:0:0:
336,344,24241,6,0,L|212:344,1,120,2|8,0:0|0:0,0:0:0:0:
156,344,24933,1,0,0:0:0:0:
156,344,25164,2,0,P|184:296|192:232,1,120,2|8,0:0|0:0,0:0:0:0:
108,144,26087,6,0,P|160:112|224:116,1,120,2|8,0:0|0:0,0:0:0:0:
260,156,26779,1,0,0:0:0:0:
260,156,27010,2,0,P|319:157|369:125,1,120,2|8,0:0|0:0,0:0:0:0:
416,16,27933,5,4,0:0:0:0:
484,113,28394,1,8,0:0:0:0:
411,210,28856,1,4,0:0:0:0:
297,170,29317,1,8,0:0:0:0:
299,49,29779,6,0,P|254:96|202:112,1,120,4|8,0:0|0:0,0:0:0:0:
87,143,30702,2,0,P|150:156|190:193,1,120,4|8,0:0|0:0,0:0:0:0:
272,278,31625,2,0,P|252:215|264:162,1,120,4|8,0:0|0:0,0:0:0:0:
302,117,32317,1,0,0:0:0:0:
357,94,32548,1,2,0:0:0:0:
476,120,33010,1,8,0:0:0:0:
476,120,33471,6,0,P|452:156|432:172,1,60,4|0,0:0|0:0,0:0:0:0:
392,204,33933,2,0,P|344:212|276:188,1,120,8|2,0:0|0:0,0:0:0:0:
232,80,34856,1,8,0:0:0:0:
132,12,35317,2,0,P|68:24|44:72,1,120,2|8,0:0|0:0,0:0:0:0:
56,188,36241,2,0,P|113:181|144:132,1,120,2|8,0:0|0:0,0:0:0:0:
44,68,37164,6,0,L|56:196,1,120,4|8,0:0|0:0,0:0:0:0:
68,308,38087,2,0,P|144:316|188:328,1,120,4|8,0:0|0:0,0:0:0:0:
300,368,39010,2,0,P|360:360|404:316,1,120,4|8,0:0|0:0,0:0:0:0:
424,264,39702,1,0,0:0:0:0:
428,204,39933,1,2,0:0:0:0:
384,92,40394,1,8,0:0:0:0:
308,184,40856,6,0,P|276:188|248:200,1,60,4|0,0:0|0:0,0:0:0:0:
216,248,41317,2,0,P|160:276|100:276,1,120,8|2,0:0|0:0,0:0:0:0:
20,192,42241,1,8,0:0:0:0:
44,76,42702,1,8,0:0:0:0:
104,92,42933,6,0,P|132:80|164:76,2,60,2|2|2,0:0|0:0|0:0,0:0:0:0:
58,135,43625,2,0,P|77:160|101:178,1,60,2|2,0:0|0:0,0:0:0:0:
156,200,44087,2,0,P|189:194|213:180,1,60,2|2,0:0|0:0,0:0:0:0:
240,132,44548,6,0,P|284:120|360:128,1,120,4|8,0:0|0:0,0:0:0:0:
456,196,45471,2,0,P|423:228|399:301,1,120,4|8,0:0|0:0,0:0:0:0:
292,351,46394,2,0,P|280:306|228:249,1,120,4|8,0:0|0:0,0:0:0:0:
180,224,47087,1,0,0:0:0:0:
124,244,47317,1,2,0:0:0:0:
116,124,47779,1,8,0:0:0:0:
116,124,48241,6,0,L|144:64,1,60,4|0,0:0|0:0,0:0:0:0:
164,12,48702,2,0,P|224:20|276:56,1,120,8|2,0:0|0:0,0:0:0:0:
312,164,49625,1,8,0:0:0:0:
204,216,50087,2,0,P|244:268|296:284,1,120,2|8,0:0|0:0,0:0:0:0:
408,248,51010,1,2,0:0:0:0:
432,132,51472,1,8,0:0:0:0:
348,48,51933,6,0,L|228:48,1,120,4|8,0:0|0:0,0:0:0:0:
164,160,52856,2,0,L|284:160,1,120,4|8,0:0|0:0,0:0:0:0:
404,160,53779,1,4,0:0:0:0:
496,240,54241,1,8,0:0:0:0:
472,296,54471,1,0,0:0:0:0:
448,352,54702,2,0,P|384:316|372:272,1,120,2|8,0:0|0:0,0:0:0:0:
288,188,55625,6,0,P|296:216|300:248,1,60,4|0,0:0|0:0,0:0:0:0:
300,308,56087,2,0,P|256:344|192:356,1,120,8|2,0:0|0:0,0:0:0:0:
88,324,57010,1,8,0:0:0:0:
64,208,57471,1,8,0:0:0:0:
96,156,57702,6,2,L|32:156,2,60
156,152,58394,2,0,P|192:148|216:136,1,60,2|2,0:0|0:0,0:0:0:0:
256,96,58856,2,0,P|259:66|272:39,2,60,8|2|4,0:0|0:0|0:0,0:0:0:0:
320,196,59779,1,2,0:0:0:0:
380,188,60010,6,0,P|416:192|444:204,1,60
488,236,60471,1,0,0:0:0:0:
504,296,60702,1,2,0:0:0:0:
404,360,61164,6,0,P|356:348|280:348,1,120,0|2,0:0|0:0,0:0:0:0:
228,360,61856,2,0,P|204:372|168:376,2,60,0|0|0,0:0|0:0|0:0,0:0:0:0:
248,304,62548,1,8,0:0:0:0:
240,184,63010,6,0,P|184:152|120:160,1,120,0|2,0:0|0:0,0:0:0:0:
84,192,63702,2,0,P|52:272|84:360,1,180,0|2,0:0|0:0,0:0:0:0:
172,276,64856,5,4,0:0:0:0:
256,360,65317,1,2,0:0:0:0:
288,244,65779,1,4,0:0:0:0:
172,276,66241,1,8,0:0:0:0:
256,360,66702,2,0,P|300:368|376:356,1,120,4|2,0:0|0:0,0:0:0:0:
416,316,67394,6,0,P|448:328|476:332,2,60,0|0|0,0:0|0:0|0:0,0:0:0:0:
372,272,68087,1,2,0:0:0:0:
316,168,68548,2,0,P|356:152|432:140,1,120,0|2,0:0|0:0,0:0:0:0:
492,140,69241,6,0,P|488:112|476:76,2,60,0|0|0,0:0|0:0|0:0,0:0:0:0:
500,200,69933,1,8,0:0:0:0:
480,320,70394,6,0,P|432:340|368:316,1,120,0|2,0:0|0:0,0:0:0:0:
338,268,71087,2,0,P|270:212|182:230,1,180,0|2,0:0|0:0,0:0:0:0:
232,336,72241,6,0,P|168:348|116:324,1,120,0|2,0:0|0:0,0:0:0:0:
76,284,72933,2,0,P|64:192|112:124,1,180,0|8,0:0|0:0,0:0:0:0:
220,68,74087,1,4,0:0:0:0:
332,112,74548,1,2,0:0:0:0:
376,152,74779,6,0,P|348:168|308:168,1,60
268,144,75241,2,0,P|244:120|232:92,1,60,0|2,0:0|0:0,0:0:0:0:
144,16,75933,6,0,L|136:144,1,120,0|2,0:0|0:0,0:0:0:0:
132,196,76625,1,0,0:0:0:0:
124,256,76856,2,0,P|96:264|60:268,1,60
16,300,77317,2,0,P|36:320|58:349,1,60,8|0,0:0|0:0,0:0:0:0:
108,371,77779,6,0,P|128:316|176:280,1,120,0|2,0:0|0:0,0:0:0:0:
224,316,78471,2,0,P|288:352|376:308,1,180,0|2,0:0|0:0,0:0:0:0:
420,196,79625,5,4,0:0:0:0:
312,144,80087,1,2,0:0:0:0:
204,92,80548,1,4,0:0:0:0:
303,24,81010,1,8,0:0:0:0:
312,144,81471,2,0,P|224:216|116:172,1,240,4|0,0:0|0:0,0:0:0:0:
204,92,82856,5,2,0:0:0:0:
204,92,83087,2,0,P|97:49|9:121,1,240,2|0,0:0|0:0,0:0:0:0:
116,172,84471,6,0,L|124:240,2,60,2|8|0,0:0|0:0|0:0,0:0:0:0:
176,168,85164,2,0,P|236:172|292:152,1,120,2|2,0:0|0:0,0:0:0:0:
320,100,85856,2,0,P|392:52|484:72,1,180,2|2,0:0|0:0,0:0:0:0:
416,172,87010,5,4,0:0:0:0:
416,172,87241,1,4,0:0:0:0:
320,100,87702,1,4,0:0:0:0:
236,188,88164,1,0,0:0:0:0:
292,208,88394,2,0,P|312:228|328:260,1,60,8|0,0:0|0:0,0:0:0:0:
332,312,88856,6,0,P|292:352|232:356,1,120,6|8,0:0|0:0,0:0:0:0:
116,324,89779,2,0,L|76:200,1,120,2|8,0:0|0:0,0:0:0:0:
44,96,90702,1,12,0:0:0:0:
160,128,91164,1,8,0:0:0:0:
240,40,91625,2,0,P|292:48|368:24,1,120,8|8,0:0|0:0,0:0:0:0:
456,100,92548,6,0,P|488:152|460:196,1,120,6|8,0:0|0:0,0:0:0:0:
344,248,93471,2,0,P|315:199|348:152,1,120,2|8,0:0|0:0,0:0:0:0:
460,196,94394,2,0,P|460:320|368:376,1,240,12|8,0:0|0:0,0:0:0:0:
256,336,95779,1,8,0:0:0:0:
140,372,96241,6,0,L|104:252,1,120,6|8,0:0|0:0,0:0:0:0:
20,172,97164,2,0,P|72:140|132:140,1,120,2|8,0:0|0:0,0:0:0:0:
220,216,98087,1,12,0:0:0:0:
108,256,98548,1,8,0:0:0:0:
130,140,99010,1,8,0:0:0:0:
220,216,99471,1,8,0:0:0:0:
200,336,99933,6,0,P|320:336|452:152,1,360,4|0,0:0|0:0,0:0:0:0:
440,36,101779,1,4,0:0:0:0:
340,100,102241,1,8,0:0:0:0:
256,12,102702,1,4,0:0:0:0:
172,100,103164,1,8,0:0:0:0:
72,36,103625,1,4,0:0:0:0:
256,192,103856,12,0,105471,0:0:0:0:
362,132,116548,6,0,P|332:132|304:140,1,60,2|2,0:0|0:0,0:0:0:0:
256,176,117010,2,0,P|227:184|197:184,1,60,2|2,0:0|0:0,0:0:0:0:
140,172,117471,2,0,L|140:232,2,60,2|0|8,0:0|0:0|0:0,0:0:0:0:
180,56,118394,6,0,P|224:40|296:44,1,120,4|8,0:0|0:0,0:0:0:0:
392,116,119317,2,0,P|408:160|404:232,1,120,4|8,0:0|0:0,0:0:0:0:
332,328,120241,2,0,P|288:344|216:340,1,120,4|8,0:0|0:0,0:0:0:0:
160,316,120932,1,0,0:0:0:0:
120,268,121163,1,2,0:0:0:0:
108,148,121625,1,8,0:0:0:0:
108,148,122087,6,0,L|120:88,1,60,4|0,0:0|0:0,0:0:0:0:
132,32,122548,2,0,P|184:52|252:52,1,120,8|2,0:0|0:0,0:0:0:0:
364,20,123471,1,8,0:0:0:0:
472,76,123933,2,0,L|464:208,1,120,2|8,0:0|0:0,0:0:0:0:
356,252,124856,2,0,L|364:120,1,120,2|8,0:0|0:0,0:0:0:0:
464,196,125779,6,0,P|464:248|476:324,1,120,4|8,0:0|0:0,0:0:0:0:
364,364,126702,2,0,P|312:368|244:344,1,120,4|8,0:0|0:0,0:0:0:0:
192,240,127625,2,0,P|136:220|76:228,1,120,4|8,0:0|0:0,0:0:0:0:
28,260,128317,1,0,0:0:0:0:
4,316,128548,1,2,0:0:0:0:
120,352,129010,1,8,0:0:0:0:
120,352,129471,6,0,L|180:336,1,60,4|0,0:0|0:0,0:0:0:0:
236,348,129933,2,0,P|256:288|292:244,1,120,8|2,0:0|0:0,0:0:0:0:
400,196,130856,1,8,0:0:0:0:
500,260,131317,1,8,0:0:0:0:
504,320,131548,6,0,P|504:344|496:380,2,60,2|2|2,0:0|0:0|0:0,0:0:0:0:
452,292,132241,2,0,P|444:260|448:228,1,60,2|2,0:0|0:0,0:0:0:0:
456,172,132702,2,0,P|444:136|424:112,1,60,2|2,0:0|0:0,0:0:0:0:
380,88,133164,6,0,P|328:80|260:88,1,120,4|8,0:0|0:0,0:0:0:0:
152,140,134087,2,0,P|156:188|148:260,1,120,4|8,0:0|0:0,0:0:0:0:
68,348,135010,2,0,P|124:376|184:372,1,120,4|8,0:0|0:0,0:0:0:0:
232,344,135702,1,0,0:0:0:0:
268,296,135932,1,2,0:0:0:0:
296,180,136394,1,8,0:0:0:0:
184,220,136856,6,0,P|156:224|124:224,1,60,4|0,0:0|0:0,0:0:0:0:
68,200,137317,2,0,P|44:148|60:88,1,120,8|2,0:0|0:0,0:0:0:0:
156,20,138240,1,8,0:0:0:0:
272,60,138702,2,0,L|392:60,1,120,2|8,0:0|0:0,0:0:0:0:
488,132,139625,1,2,0:0:0:0:
488,252,140087,1,8,0:0:0:0:
392,328,140548,6,0,P|356:344|272:328,1,120,4|8,0:0|0:0,0:0:0:0:
332,224,141471,2,0,P|274:209|218:228,1,120,4|8,0:0|0:0,0:0:0:0:
160,332,142394,1,4,0:0:0:0:
48,292,142856,1,8,0:0:0:0:
44,232,143086,1,0,0:0:0:0:
40,172,143317,2,0,P|32:120|16:52,1,120,2|8,0:0|0:0,0:0:0:0:
132,20,144241,6,0,L|136:96,1,60,4|0,0:0|0:0,0:0:0:0:
136,140,144702,2,0,P|172:100|232:76,1,120,8|2,0:0|0:0,0:0:0:0:
352,60,145625,1,8,0:0:0:0:
460,112,146086,1,8,0:0:0:0:
492,164,146317,6,0,L|492:224,2,60,2|2|2,0:0|0:0|0:0,0:0:0:0:
432,164,147010,2,0,P|400:164|372:172,1,60,2|2,0:0|0:0,0:0:0:0:
320,196,147471,2,0,P|292:212|276:236,1,60,8|2,0:0|0:0,0:0:0:0:
256,292,147933,6,0,P|236:232|196:184,1,120,4|8,0:0|0:0,0:0:0:0:
88,144,148856,2,0,P|144:128|200:88,1,120,2|8,0:0|0:0,0:0:0:0:
316,92,149779,2,0,P|365:126|423:143,1,120,2|8,0:0|0:0,0:0:0:0:
312,188,150702,2,0,P|275:235|257:292,1,120,2|8,0:0|0:0,0:0:0:0:
360,352,151625,6,0,L|452:276,1,120,2|8,0:0|0:0,0:0:0:0:
500,164,152548,2,0,P|476:96|440:60,1,120,2|8,0:0|0:0,0:0:0:0:
332,16,153471,2,0,P|285:70|271:119,1,120,2|8,0:0|0:0,0:0:0:0:
376,176,154394,2,0,P|360:228|316:276,1,120,2|8,0:0|0:0,0:0:0:0:
195,275,155317,6,0,P|154:232|136:176,1,120,2|8,0:0|0:0,0:0:0:0:
239,115,156240,2,0,P|220:59|180:15,1,120,2|8,0:0|0:0,0:0:0:0:
68,62,157163,2,0,P|29:106|12:164,1,120,2|8,0:0|0:0,0:0:0:0:
60,276,158086,2,0,L|152:352,1,120,2|8,0:0|0:0,0:0:0:0:
272,344,159010,6,0,P|304:320|316:300,1,60,2|0,0:0|0:0,0:0:0:0:
340,248,159471,1,8,0:0:0:0:
436,316,159933,2,0,P|412:284|392:272,1,60,2|0,0:0|0:0,0:0:0:0:
340,248,160394,1,8,0:0:0:0:
408,152,160856,6,0,P|376:176|364:196,1,60,2|0,0:0|0:0,0:0:0:0:
340,248,161317,1,8,0:0:0:0:
244,180,161779,2,0,P|288:224|344:248,1,120,2|8,0:0|0:0,0:0:0:0:
448,196,162702,5,4,0:0:0:0:
496,88,163164,1,2,0:0:0:0:
448,52,163394,2,0,P|420:64|388:64,1,60
332,56,163856,1,0,0:0:0:0:
284,20,164087,1,2,0:0:0:0:
168,52,164548,6,0,L|172:172,1,120,0|2,0:0|0:0,0:0:0:0:
176,232,165241,2,0,P|208:236|244:228,2,60,0|0|0,0:0|0:0|0:0,0:0:0:0:
124,204,165933,1,8,0:0:0:0:
36,284,166394,6,0,P|84:324|140:324,1,120,0|2,0:0|0:0,0:0:0:0:
180,280,167087,2,0,P|184:224|84:176,1,180,0|2,0:0|0:0,0:0:0:0:
36,284,168241,5,4,0:0:0:0:
140,344,168702,1,2,0:0:0:0:
256,320,169164,1,4,0:0:0:0:
372,344,169625,1,8,0:0:0:0:
476,284,170087,2,0,P|504:180|408:112,1,240,4|0,0:0|0:0,0:0:0:0:
372,228,171471,5,2,0:0:0:0:
372,228,171702,2,0,P|278:165|303:56,1,240,2|0,0:0|0:0,0:0:0:0:
408,112,173087,6,0,L|472:80,2,60,2|0|0,0:0|0:0|0:0,0:0:0:0:
432,168,173779,2,0,P|424:220|364:244,1,120,2|2,0:0|0:0,0:0:0:0:
312,220,174471,2,0,P|232:216|172:288,1,180,2|2,0:0|0:0,0:0:0:0:
68,348,175625,5,4,0:0:0:0:
68,348,175856,1,4,0:0:0:0:
64,228,176317,1,4,0:0:0:0:
60,108,176779,1,0,0:0:0:0:
104,148,177010,2,0,P|128:156|164:156,1,60,8|0,0:0|0:0,0:0:0:0:
220,144,177471,6,0,P|274:110|306:62,1,120,6|8,0:0|0:0,0:0:0:0:
410,122,178394,2,0,P|442:158|470:230,1,120,2|8,0:0|0:0,0:0:0:0:
406,326,179317,1,12,0:0:0:0:
346,222,179779,1,8,0:0:0:0:
282,118,180241,2,0,P|270:54|282:-2,1,120,8|8,0:0|0:0,0:0:0:0:
362,90,181164,6,0,P|362:142|318:194,1,120,6|8,0:0|0:0,0:0:0:0:
222,126,182087,2,0,P|182:169|180:228,1,120,2|8,0:0|0:0,0:0:0:0:
278,302,183010,2,0,P|162:350|74:290,1,240,12|8,0:0|0:0,0:0:0:0:
34,178,184394,1,8,0:0:0:0:
26,58,184856,6,0,L|146:42,1,120,6|8,0:0|0:0,0:0:0:0:
250,102,185779,2,0,L|370:86,1,120,2|8,0:0|0:0,0:0:0:0:
475,145,186702,1,12,0:0:0:0:
454,262,187164,1,8,0:0:0:0:
354,330,187625,1,8,0:0:0:0:
238,306,188087,1,8,0:0:0:0:
166,210,188548,6,0,P|198:82|402:50,1,360,4|0,0:0|0:0,0:0:0:0:
475,145,190394,1,4,0:0:0:0:
454,262,190856,1,8,0:0:0:0:
354,330,191317,1,4,0:0:0:0:
238,306,191779,1,8,0:0:0:0:
166,210,192241,1,4,0:0:0:0:
256,192,192471,12,0,193625,0:0:0:0:
392,32,207010,6,0,P|380:88|396:156,1,120,4|2,0:0|0:0,0:0:0:0:
440,188,207702,2,0,P|453:246|441:303,1,120
412,356,208394,1,2,0:0:0:0:
304,304,208856,6,0,P|248:336|192:336,1,120,0|2,0:0|0:0,0:0:0:0:
136,320,209548,2,0,L|88:208,1,120
68,152,210241,1,8,0:0:0:0:
152,68,210702,6,0,P|205:92|260:68,1,120,0|2,0:0|0:0,0:0:0:0:
292,20,211394,2,0,P|343:-3|399:20,1,120
439,64,212087,1,2,0:0:0:0:
344,140,212548,5,0,0:0:0:0:
386,253,213010,1,2,0:0:0:0:
291,327,213471,1,0,0:0:0:0:
190,260,213933,1,8,0:0:0:0:
223,144,214394,6,0,P|176:176|112:184,1,120,4|2,0:0|0:0,0:0:0:0:
56,180,215087,2,0,P|60:128|80:60,1,120
104,8,215779,1,2,0:0:0:0:
220,44,216241,6,0,P|264:52|340:44,1,120,0|2,0:0|0:0,0:0:0:0:
388,12,216933,2,0,P|360:60|352:124,1,120
364,180,217625,1,8,0:0:0:0:
484,168,218087,6,0,P|480:228|444:276,1,120,0|2,0:0|0:0,0:0:0:0:
392,304,218779,2,0,P|336:304|280:272,1,120
252,220,219471,1,2,0:0:0:0:
140,180,219933,6,0,L|160:120,1,60,2|0,0:0|0:0,0:0:0:0:
208,88,220394,2,0,L|268:104,1,60,2|0,0:0|0:0,0:0:0:0:
484,160,221779,6,0,P|492:220|476:256,1,90.0000034332277,4|2,0:0|0:0,0:0:0:0:
404,200,222702,2,0,P|392:243|402:286,1,90.0000034332277,0|2,0:0|0:0,0:0:0:0:
476,336,223625,2,0,P|404:376|324:328,1,180.000006866455,2|0,0:0|0:0,0:0:0:0:
288,252,225010,1,2,0:0:0:0:
300,164,225471,6,0,L|208:180,1,90.0000034332277,2|2,0:0|0:0,0:0:0:0:
184,264,226394,2,0,P|184:300|160:348,1,90.0000034332277,2|2,0:0|0:0,0:0:0:0:
72,372,227317,1,2,0:0:0:0:
116,196,228241,1,0,0:0:0:0:
164,28,229164,6,0,L|272:52,1,90.0000034332277,4|2,0:0|0:0,0:0:0:0:
340,44,230087,2,0,L|448:20,1,90.0000034332277,0|2,0:0|0:0,0:0:0:0:
504,68,231010,2,0,P|488:152|404:180,1,180.000006866455,2|2,0:0|0:0,0:0:0:0:
328,136,232394,1,2,0:0:0:0:
328,136,232856,6,0,P|300:120|268:112,1,60,4|0,0:0|0:0,0:0:0:0:
212,108,233317,1,2,0:0:0:0:
116,180,233779,2,0,P|212:244|152:320,1,240,2|4,0:0|0:0,0:0:0:0:
92,316,234933,6,0,P|56:304|32:300,2,60,2|2|2,0:0|0:0|0:0,0:0:0:0:
120,368,235625,2,0,P|152:372|184:372,1,60,2|2,0:0|0:0,0:0:0:0:
240,364,236087,2,0,P|269:352|297:336,1,60,2|2,0:0|0:0,0:0:0:0:
344,304,236548,6,0,P|398:329|456:322,1,120,4|8,0:0|0:0,0:0:0:0:
416,208,237471,2,0,P|362:184|304:190,1,120,4|8,0:0|0:0,0:0:0:0:
224,280,238394,2,0,P|170:304|111:298,1,120,4|8,0:0|0:0,0:0:0:0:
56,268,239087,1,0,0:0:0:0:
24,216,239317,1,2,0:0:0:0:
116,140,239779,1,8,0:0:0:0:
116,140,240241,6,0,L|176:152,2,60,4|0|8,0:0|0:0|0:0,0:0:0:0:
56,124,240933,1,0,0:0:0:0:
100,84,241164,2,0,P|160:72|220:84,1,120,2|8,0:0|0:0,0:0:0:0:
256,128,241856,1,0,0:0:0:0:
256,188,242087,2,0,L|272:312,1,120,2|8,0:0|0:0,0:0:0:0:
384,356,243010,2,0,L|368:232,1,120,2|8,0:0|0:0,0:0:0:0:
256,188,243933,6,0,P|217:232|205:291,1,120,4|8,0:0|0:0,0:0:0:0:
177,173,244856,2,0,P|158:116|114:77,1,120,4|8,0:0|0:0,0:0:0:0:
227,112,245779,2,0,P|285:123|342:102,1,120,4|8,0:0|0:0,0:0:0:0:
388,64,246471,1,0,0:0:0:0:
416,12,246702,1,2,0:0:0:0:
503,96,247164,1,8,0:0:0:0:
503,96,247625,6,0,L|448:116,1,60,4|0,0:0|0:0,0:0:0:0:
392,136,248087,2,0,P|360:180|376:240,1,120,8|2,0:0|0:0,0:0:0:0:
476,304,249010,1,8,0:0:0:0:
372,360,249471,1,8,0:0:0:0:
312,360,249702,6,2,L|244:360,2,60
340,308,250394,2,2,L|276:308,1,60
308,252,250856,2,2,L|248:252,1,60
279,200,251317,6,0,P|216:185|172:152,1,120,4|8,0:0|0:0,0:0:0:0:
148,96,252010,1,0,0:0:0:0:
148,96,252241,2,0,L|88:212,1,120,2|8,0:0|0:0,0:0:0:0:
32,304,253164,6,0,P|80:328|152:336,1,120,2|8,0:0|0:0,0:0:0:0:
200,308,253856,1,0,0:0:0:0:
200,308,254087,2,0,P|259:307|320:324,1,120,2|8,0:0|0:0,0:0:0:0:
424,376,255010,6,0,L|444:256,1,120,2|8,0:0|0:0,0:0:0:0:
452,196,255702,1,0,0:0:0:0:
452,196,255933,2,0,P|408:156|384:100,1,120,2|8,0:0|0:0,0:0:0:0:
288,32,256856,1,8,0:0:0:0:
288,32,257087,6,2,P|272:56|264:96,1,60
264,145,257548,1,2,0:0:0:0:
276,204,257779,2,2,P|288:240|308:264,1,60
340,305,258241,2,2,P|364:328|388:340,1,60
444,352,258702,6,0,P|491:296|488:248,1,120,4|8,0:0|0:0,0:0:0:0:
468,197,259394,1,0,0:0:0:0:
468,197,259625,2,0,P|408:188|372:141,1,120,2|8,0:0|0:0,0:0:0:0:
388,24,260548,6,0,L|268:32,1,120,2|8,0:0|0:0,0:0:0:0:
208,36,261241,1,0,0:0:0:0:
208,36,261471,2,0,P|148:48|92:81,1,120,2|8,0:0|0:0,0:0:0:0:
20,173,262394,6,0,P|28:224|64:284,1,120,2|8,0:0|0:0,0:0:0:0:
116,309,263087,1,0,0:0:0:0:
116,309,263317,2,0,P|158:275|191:213,1,120,2|8,0:0|0:0,0:0:0:0:
212,100,264241,1,8,0:0:0:0:
212,100,264471,6,2,L|272:108,1,60
332,116,264933,1,2,0:0:0:0:
392,124,265164,2,2,P|420:144|440:169,1,60
464,216,265625,2,2,P|469:249|466:281,1,60,8|2,0:0|0:0,0:0:0:0:
448,332,266087,5,4,0:0:0:0:
