osu file format v13

[General]
AudioFilename: Saotome no Yuugi soshite Ryuugi.mp3
AudioLeadIn: 0
PreviewTime: 236433
Countdown: 0
SampleSet: Soft
StackLeniency: 0.6
Mode: 0
LetterboxInBreaks: 1
WidescreenStoryboard: 0

[Editor]
Bookmarks: 10394,27933,57471,81471,115625,146087,170087,205164,232861,236433
DistanceSpacing: 1
BeatDivisor: 4
GridSize: 4
TimelineZoom: 2.2

[Metadata]
Title:Saotome no Yuugi soshite Ryuugi
TitleUnicode:早乙女の遊戯そして流儀
Artist:=NeutraL=
ArtistUnicode:=NeutraL=
Creator:PEPOTTI
Version:Hard
Source:Touhou
Tags:コツキミヤ kotsuki miya SENTIVE 桜華結界 -Perfect Cherry Blossom- 東方紅魔郷 u.n owen was her flandre scarlet
BeatmapID:439845
BeatmapSetID:183623

[Difficulty]
HPDrainRate:5
CircleSize:4
OverallDifficulty:6
ApproachRate:7
SliderMultiplier:1.6
SliderTickRate:1

[Events]
//Background and Video events
0,0,"Scarlet SisterS.jpg",0,0
//Break Periods
2,105671,115648
2,194087,206110
//Storyboard Layer 0 (Background)
//Storyboard Layer 1 (Fail)
//Storyboard Layer 2 (Pass)
//Storyboard Layer 3 (Foreground)
//Storyboard Sound Samples

[TimingPoints]
241,461.538461538462,4,2,0,70,1,0
11202,-181.818181818182,4,2,0,30,0,0
11664,-133.333333333333,4,2,0,30,0,0
12125,-105.263157894737,4,2,0,30,0,0
12587,-86.9565217391303,4,2,0,30,0,0
13048,-86.9565217391303,4,2,0,50,0,0
13510,-86.9565217391306,4,2,0,55,0,0
13971,-86.9565217391303,4,2,0,60,0,0
14433,-86.9565217391303,4,2,0,65,0,0
14952,-100,4,2,0,70,0,0
29779,-100,4,2,0,70,0,1
42817,-100,4,2,0,50,0,1
44433,-100,4,2,0,70,0,1
57587,-100,4,2,0,50,0,1
58741,-100,4,1,1,35,0,1
58971,-100,4,2,0,50,0,1
59317,-100,4,2,0,70,0,0
62433,-100,4,1,1,40,0,0
62664,-100,4,2,0,70,0,0
64741,-100,4,2,0,50,0,0
66125,-100,4,1,1,45,0,0
66356,-100,4,2,0,50,0,0
66587,-100,4,2,0,70,0,0
69817,-100,4,1,1,40,0,0
70048,-100,4,2,0,70,0,0
73510,-100,4,1,1,40,0,0
73741,-100,4,2,0,70,0,0
77202,-100,4,1,1,40,0,0
77433,-100,4,2,0,70,0,0
79510,-100,4,2,0,55,0,0
80952,-100,4,1,1,50,0,0
81067,-100,4,2,0,60,0,0
81414,-100,4,2,0,70,0,0
84587,-100,4,1,1,40,0,0
84817,-100,4,2,0,70,0,0
85741,-133.333333333333,4,2,0,70,0,0
86894,-100,4,2,0,50,0,0
87933,-100,4,2,0,70,0,0
88221,-100,4,2,0,60,0,0
88337,-100,4,1,1,30,0,0
88452,-100,4,2,0,40,0,0
88567,-100,4,2,0,30,0,0
88741,-100,4,2,0,70,0,0
91856,-100,4,1,1,40,0,0
92317,-100,4,2,0,70,0,0
95702,-100,4,1,1,40,0,0
95856,-100,4,2,0,90,0,0
96164,-100,4,2,0,70,0,0
99394,-100,4,1,1,40,0,0
99548,-133.333333333333,4,2,0,70,0,0
101548,-100,4,2,0,70,0,0
116433,-100,4,2,0,90,0,0
117356,-100,4,2,0,50,0,0
117817,-100,4,1,1,30,0,0
118048,-100,4,2,0,50,0,0
118394,-100,4,2,0,70,0,1
131433,-100,4,2,0,50,0,1
133048,-100,4,2,0,70,0,1
146202,-100,4,2,0,50,0,1
147356,-100,4,1,1,35,0,1
147587,-100,4,2,0,50,0,1
147933,-100,4,2,0,70,0,0
150933,-100,4,1,1,40,0,0
151394,-100,4,2,0,70,0,0
154625,-100,4,1,1,40,0,0
155087,-100,4,2,0,70,0,0
158433,-100,4,1,1,40,0,0
158664,-100,4,2,0,70,0,0
162183,-100,4,1,1,40,0,0
162298,-100,4,2,0,70,0,0
165817,-100,4,1,1,40,0,0
166048,-100,4,2,0,70,0,0
168125,-100,4,2,0,50,0,0
169567,-100,4,1,1,45,0,0
169683,-100,4,2,0,50,0,0
170029,-100,4,2,0,70,0,0
173202,-100,4,1,1,40,0,0
173433,-100,4,2,0,70,0,0
174356,-133.333333333333,4,2,0,70,0,0
175510,-100,4,2,0,50,0,0
176548,-100,4,2,0,70,0,0
176837,-100,4,2,0,60,0,0
176952,-100,4,1,1,30,0,0
177067,-100,4,2,0,40,0,0
177183,-100,4,2,0,30,0,0
177356,-100,4,2,0,70,0,0
180471,-100,4,1,1,40,0,0
180933,-100,4,2,0,70,0,0
184317,-100,4,1,1,40,0,0
184471,-100,4,2,0,90,0,0
184779,-100,4,2,0,70,0,0
188010,-100,4,1,1,40,0,0
188164,-133.333333333333,4,2,0,70,0,0
190164,-100,4,2,0,70,0,0
192010,-100,4,2,0,50,0,0
193856,-100,4,2,0,70,0,0
210125,-100,4,1,1,40,0,0
210356,-100,4,2,0,70,0,0
213817,-100,4,1,1,40,0,0
214048,-100,4,2,0,70,0,0
217510,-100,4,1,1,40,0,0
217741,-100,4,2,0,70,0,0
219817,-100,4,2,0,90,0,0
220741,-133.333333333333,4,2,0,20,0,0
221202,-100,4,2,0,20,0,0
221664,-133.333333333333,4,2,0,30,0,0
227433,-133.333333333333,4,2,0,50,0,0
231818,-133.333333333333,4,2,0,60,0,0
232798,-100,4,2,0,70,0,0
234183,-100,4,2,0,85,0,0
234817,-100,4,2,0,75,0,0
236548,-100,4,2,0,80,0,1
249587,-100,4,2,0,60,0,1
250741,-100,4,2,0,70,0,1
251317,-100,4,2,0,70,0,0
256971,-100,4,2,0,75,0,0
258587,-100,4,2,0,80,0,0

[Colours]
Combo1 : 222,189,114
Combo2 : 227,108,135
Combo3 : 166,135,245
Combo4 : 233,158,230

[HitObjects]
244,36,11317,6,2,P|252:56|252:80,1,44.0000013427735
236,120,11779,6,2,P|212:144|184:148,1,60.0000022888184
124,136,12241,6,2,P|88:140|60:172,1,75.9999979705811
36,244,12702,6,2,P|40:292|68:324,1,92.0000017547608
232,352,13164,6,2,L|251:262,1,92.0000017547608
166,264,13625,2,2,L|135:178,1,92.0000017547608
204,133,14087,2,2,P|249:125|295:134,1,92.0000017547608
356,80,14548,2,2,P|401:88|447:79,1,92.0000017547608
452,72,14894,1,2,0:0:0:0:
456,64,15010,6,0,L|472:144,1,80,4|0,0:0|0:0,0:0:0:0:
488,220,15471,2,0,P|480:260|456:292,1,80,8|0,0:0|0:0,0:0:0:0:
384,328,15933,1,2,0:0:0:0:
384,328,16164,1,0,0:0:0:0:
300,280,16394,1,8,0:0:0:0:
240,364,16625,1,0,0:0:0:0:
184,256,16856,6,0,P|140:256|104:272,1,80,2|0,0:0|0:0,0:0:0:0:
56,208,17317,2,0,L|72:128,1,80,8|0,0:0|0:0,0:0:0:0:
88,52,17779,1,2,0:0:0:0:
88,52,18010,1,0,0:0:0:0:
164,108,18241,1,8,0:0:0:0:
236,32,18471,1,0,0:0:0:0:
352,60,18702,6,0,P|340:96|312:128,1,80,2|0,0:0|0:0,0:0:0:0:
236,144,19164,2,0,P|248:180|248:224,1,80,8|0,0:0|0:0,0:0:0:0:
212,292,19625,1,2,0:0:0:0:
212,292,19856,1,0,0:0:0:0:
152,216,20087,1,8,0:0:0:0:
68,276,20317,1,0,0:0:0:0:
163,351,20548,6,0,P|200:368|252:360,1,80,4|0,0:0|0:0,0:0:0:0:
308,328,21010,2,0,P|347:325|392:340,1,80,8|0,0:0|0:0,0:0:0:0:
460,368,21471,2,0,L|480:284,1,80,4|0,0:0|0:0,0:0:0:0:
404,260,21933,2,0,L|404:176,1,80,8|0,0:0|0:0,0:0:0:0:
404,100,22394,5,4,0:0:0:0:
404,20,22625,1,0,0:0:0:0:
472,60,22856,1,8,0:0:0:0:
404,100,23087,1,0,0:0:0:0:
260,60,23317,1,2,0:0:0:0:
260,60,23779,1,8,0:0:0:0:
260,140,24010,1,0,0:0:0:0:
151,85,24241,6,0,P|138:122|115:156,1,80,2|0,0:0|0:0,0:0:0:0:
180,204,24702,2,0,P|177:243|184:283,1,80,8|0,0:0|0:0,0:0:0:0:
332,240,25164,1,2,0:0:0:0:
332,240,25625,1,8,0:0:0:0:
320,320,25856,1,0,0:0:0:0:
256,216,26087,6,0,P|220:212|176:224,1,80,2|0,0:0|0:0,0:0:0:0:
112,268,26548,2,0,P|83:290|61:330,1,80,8|0,0:0|0:0,0:0:0:0:
28,180,27010,1,2,0:0:0:0:
28,180,27471,2,0,L|20:100,1,80,8|0,0:0|0:0,0:0:0:0:
44,24,27933,6,0,P|80:12|124:8,1,80,4|0,0:0|0:0,0:0:0:0:
200,32,28394,2,0,P|212:68|216:112,1,80,8|0,0:0|0:0,0:0:0:0:
168,192,28856,1,6,0:0:0:0:
168,192,28971,1,2,0:0:0:0:
168,192,29087,2,0,L|120:200,2,40,2|2|10,0:0|0:0|0:0,0:0:0:0:
236,260,29548,1,2,0:0:0:0:
316,168,29779,6,0,P|364:140|468:140,1,160,6|8,0:0|0:0,0:0:0:0:
420,308,30702,2,0,P|372:336|268:336,1,160,4|8,0:0|0:0,0:0:0:0:
12,256,31625,2,0,P|60:228|164:228,1,160,6|8,0:0|0:0,0:0:0:0:
236,260,32317,1,0,0:0:0:0:
236,260,32548,2,0,P|244:220|244:180,1,80,2|0,0:0|0:0,0:0:0:0:
208,48,33010,1,8,0:0:0:0:
212,64,33471,6,0,P|164:100|140:104,1,80,4|0,0:0|0:0,0:0:0:0:
284,100,33933,2,0,P|332:136|356:140,1,80,8|0,0:0|0:0,0:0:0:0:
424,112,34394,1,2,0:0:0:0:
348,216,34625,1,0,0:0:0:0:
348,216,34741,1,0,0:0:0:0:
348,216,34856,1,8,0:0:0:0:
272,192,35087,1,0,0:0:0:0:
152,256,35317,5,2,0:0:0:0:
152,256,35548,1,0,0:0:0:0:
268,328,35779,1,8,0:0:0:0:
268,328,36010,1,0,0:0:0:0:
386,260,36241,6,0,P|402:296|403:337,1,80,2|0,0:0|0:0,0:0:0:0:
260,260,36702,2,0,P|244:224|243:183,1,80,8|0,0:0|0:0,0:0:0:0:
296,64,37164,6,0,P|352:112|344:196,1,160,4|8,0:0|0:0,0:0:0:0:
164,323,38087,2,0,P|108:275|116:191,1,160,4|8,0:0|0:0,0:0:0:0:
308,260,39010,2,0,P|296:316|220:380,1,160,4|8,0:0|0:0,0:0:0:0:
164,323,39702,1,0,0:0:0:0:
164,323,39933,2,0,P|124:328|84:320,1,80,2|0,0:0|0:0,0:0:0:0:
40,252,40394,2,0,P|92:232|156:236,1,120,8|0,0:0|0:0,0:0:0:0:
192,248,40856,6,0,P|192:180|200:159,1,80,4|0,0:0|0:0,0:0:0:0:
305,65,41317,2,0,P|246:98|223:102,1,80,8|0,0:0|0:0,0:0:0:0:
90,58,41779,1,2,0:0:0:0:
156,100,42010,1,0,0:0:0:0:
156,100,42125,1,0,0:0:0:0:
156,100,42241,1,8,0:0:0:0:
196,172,42471,2,0,P|212:224|212:252,1,80,0|8,0:0|0:0,0:0:0:0:
192,328,42933,5,2,0:0:0:0:
156,344,43164,1,2,0:0:0:0:
116,344,43394,1,2,0:0:0:0:
40,312,43625,5,2,0:0:0:0:
16,280,43856,1,2,0:0:0:0:
8,240,44087,1,2,0:0:0:0:
8,200,44317,1,2,0:0:0:0:
40,128,44548,6,0,P|92:152|140:244,1,160,4|8,0:0|0:0,0:0:0:0:
300,364,45471,2,0,P|294:306|350:219,1,160,4|8,0:0|0:0,0:0:0:0:
376,16,46394,2,0,P|335:56|232:70,1,160,4|8,0:0|0:0,0:0:0:0:
164,36,47087,1,0,0:0:0:0:
164,36,47317,2,0,L|192:132,1,80,2|0,0:0|0:0,0:0:0:0:
224,240,47779,1,8,0:0:0:0:
232,248,48241,6,0,P|240:304|232:332,1,80,4|0,0:0|0:0,0:0:0:0:
284,188,48702,2,0,P|276:132|284:104,1,80,8|0,0:0|0:0,0:0:0:0:
324,44,49164,1,2,0:0:0:0:
392,144,49394,1,0,0:0:0:0:
392,144,49510,1,0,0:0:0:0:
392,144,49625,1,8,0:0:0:0:
456,96,49856,1,0,0:0:0:0:
356,216,50087,6,0,P|412:208|440:216,1,80,2|0,0:0|0:0,0:0:0:0:
324,288,50548,2,0,P|268:296|240:288,1,80,8|0,0:0|0:0,0:0:0:0:
400,284,51010,5,2,0:0:0:0:
400,284,51241,1,0,0:0:0:0:
280,220,51471,1,8,0:0:0:0:
280,220,51702,1,0,0:0:0:0:
160,284,51933,6,0,P|204:336|292:356,1,160,4|8,0:0|0:0,0:0:0:0:
352,100,52856,2,0,P|308:48|220:28,1,160,4|8,0:0|0:0,0:0:0:0:
368,352,53779,1,4,0:0:0:0:
168,232,54241,5,8,0:0:0:0:
256,152,54471,1,0,0:0:0:0:
344,232,54702,2,0,P|304:240|264:224,1,80,2|0,0:0|0:0,0:0:0:0:
256,152,55164,2,0,P|276:120|276:76,1,80,8|0,0:0|0:0,0:0:0:0:
200,96,55625,5,4,0:0:0:0:
200,96,55856,1,0,0:0:0:0:
136,196,56087,1,8,0:0:0:0:
136,196,56317,1,0,0:0:0:0:
20,228,56548,1,2,0:0:0:0:
64,160,56779,1,0,0:0:0:0:
64,160,56894,1,0,0:0:0:0:
64,160,57010,1,8,0:0:0:0:
136,196,57241,2,0,P|152:228|152:272,1,80,0|8,0:0|0:0,0:0:0:0:
104,336,57702,5,2,0:0:0:0:
68,356,57933,1,2,0:0:0:0:
28,360,58164,1,2,0:0:0:0:
44,280,58394,5,2,0:0:0:0:
80,260,58625,1,2,0:0:0:0:
120,256,58856,1,8,0:0:0:0:
156,276,59087,1,2,0:0:0:0:
184,352,59317,6,0,P|232:368|336:332,1,160,4|2,0:0|0:0,0:0:0:0:
396,272,60010,2,0,L|412:356,2,80,0|0|0,0:0|0:0|0:0,0:0:0:0:
384,192,60702,1,2,0:0:0:0:
272,232,60933,1,0,0:0:0:0:
272,232,61048,1,0,0:0:0:0:
272,232,61164,6,0,P|208:232|144:164,1,160,0|2,0:0|0:0,0:0:0:0:
64,192,61856,2,0,L|45:269,2,80,0|0|0,0:0|0:0|0:0,0:0:0:0:
84,116,62548,1,8,0:0:0:0:
184,48,62779,1,0,0:0:0:0:
300,84,63010,6,0,P|312:124|304:164,1,80
272,232,63471,1,2,0:0:0:0:
192,236,63702,2,0,P|232:300|316:300,1,160
352,232,64394,1,2,0:0:0:0:
352,232,64625,1,0,0:0:0:0:
504,196,64856,6,0,L|456:312,1,120,4|0,0:0|0:0,0:0:0:0:
440,344,65317,2,0,P|392:360|360:352,1,80,2|0,0:0|0:0,0:0:0:0:
292,316,65779,1,6,0:0:0:0:
292,316,65894,1,0,0:0:0:0:
292,316,66010,1,0,0:0:0:0:
220,352,66241,1,8,0:0:0:0:
220,352,66471,1,0,0:0:0:0:
184,196,66702,6,0,P|256:168|320:212,1,160,4|0,0:0|0:0,0:0:0:0:
292,316,67394,2,0,P|256:340|220:348,2,80
340,252,68087,1,2,0:0:0:0:
340,172,68317,1,0,0:0:0:0:
292,108,68548,6,0,P|216:84|135:108,1,160,0|2,0:0|0:0,0:0:0:0:
92,170,69241,1,0,0:0:0:0:
93,250,69471,1,0,0:0:0:0:
140,316,69702,1,0,0:0:0:0:
215,341,69933,1,8,0:0:0:0:
340,172,70394,6,0,P|340:248|288:320,1,160,0|2,0:0|0:0,0:0:0:0:
215,341,71087,2,0,P|108:280|92:172,1,240,0|2,0:0|0:0,0:0:0:0:
340,172,72241,6,0,P|340:248|288:320,1,160,0|2,0:0|0:0,0:0:0:0:
215,341,72933,2,0,P|140:316|92:248,1,160
92,170,73625,1,8,0:0:0:0:
184,68,73856,5,0,0:0:0:0:
184,68,73971,1,0,0:0:0:0:
184,68,74087,2,0,L|208:260,1,160,4|2,0:0|0:0,0:0:0:0:
212,308,74779,1,0,0:0:0:0:
148,356,75010,1,0,0:0:0:0:
76,324,75241,1,0,0:0:0:0:
140,276,75471,1,2,0:0:0:0:
252,324,75702,1,0,0:0:0:0:
348,216,75933,6,0,P|297:171|269:83,1,160,0|2,0:0|0:0,0:0:0:0:
277,7,76625,1,0,0:0:0:0:
277,7,76856,1,0,0:0:0:0:
397,71,77087,2,0,P|401:99|393:151,1,80,0|8,0:0|0:0,0:0:0:0:
348,216,77548,1,0,0:0:0:0:
213,255,77779,6,0,P|209:227|217:175,1,80,0|0,0:0|0:0,0:0:0:0:
262,110,78240,1,2,0:0:0:0:
393,149,78471,2,0,L|413:319,1,160
341,347,79164,1,2,0:0:0:0:
341,347,79394,1,0,0:0:0:0:
208,232,79625,6,0,P|192:288|148:336,1,120,4|0,0:0|0:0,0:0:0:0:
96,352,80087,2,0,P|55:310|35:248,1,120,2|0,0:0|0:0,0:0:0:0:
48,195,80548,2,0,P|104:180|168:194,1,120,4|0,0:0|0:0,0:0:0:0:
208,232,81010,2,0,P|151:246|87:232,1,120,8|0,0:0|0:0,0:0:0:0:
48,195,81471,2,0,P|96:63|248:99,1,320,4|0,0:0|0:0,0:0:0:0:
266,289,82856,5,2,0:0:0:0:
266,289,83087,2,4,P|408:324|463:188,1,320,2|0,0:0|0:0,0:0:0:0:
264,128,84471,6,0,L|184:112,2,80,2|8|0,0:0|0:0|0:0,0:0:0:0:
264,208,85164,2,0,P|192:248|188:320,1,160,2|2,0:0|0:0,0:0:0:0:
252,368,85856,6,0,P|332:328|336:244,1,180.000006866455,2|2,0:0|0:0,0:0:0:0:
292,188,86779,1,0,0:0:0:0:
208,140,87010,5,4,0:0:0:0:
208,140,87241,1,4,0:0:0:0:
364,100,87702,1,4,0:0:0:0:
480,212,88164,1,2,0:0:0:0:
480,212,88279,1,2,0:0:0:0:
480,212,88394,2,0,P|481:241|477:253,2,40,8|0|0,0:0|0:0|0:0,0:0:0:0:
425,157,88856,6,0,L|429:101,2,53.3333333333333,6|0|0,0:0|0:0|0:0,0:0:0:0:
393,185,89317,2,0,L|389:238,2,53.3333333333333,8|0|0,0:0|0:0|0:0,0:0:0:0:
369,149,89779,2,0,L|373:93,2,53.3333333333333,2|0|0,0:0|0:0|0:0,0:0:0:0:
337,177,90240,2,0,L|333:230,2,53.3333333333333,8|0|0,0:0|0:0|0:0,0:0:0:0:
305,133,90702,5,12,0:0:0:0:
208,88,91010,2,0,P|168:84|152:88,1,53.3333333333333,0|8,0:0|0:0,0:0:0:0:
76,160,91471,1,0,0:0:0:0:
76,160,91625,2,0,P|112:220|108:312,1,160,8|8,0:0|0:0,0:0:0:0:
109,307,92548,6,0,L|56:320,2,53.3333333333333,6|0|0,0:0|0:0|0:0,0:0:0:0:
119,267,93010,2,0,L|63:255,2,53.3333333333333,8|0|0,0:0|0:0|0:0,0:0:0:0:
147,235,93471,2,0,L|107:195,2,53.3333333333333,2|0|0,0:0|0:0|0:0,0:0:0:0:
187,215,93933,2,0,L|167:163,2,53.3333333333333,8|0|0,0:0|0:0|0:0,0:0:0:0:
239,211,94394,5,12,0:0:0:0:
311,291,94702,2,0,P|339:303|363:307,1,53.3333333333333,0|8,0:0|0:0,0:0:0:0:
471,275,95164,1,0,0:0:0:0:
471,275,95317,2,0,P|456:224|420:184,1,106.666666666667,8|0,0:0|0:0,0:0:0:0:
372,168,95779,2,0,P|360:196|352:224,2,53.3333333333333,8|2|2,0:0|0:0|0:0,0:0:0:0:
412,132,96241,5,6,0:0:0:0:
428,28,96548,2,0,P|400:40|376:44,1,53.3333333333333,0|8,0:0|0:0,0:0:0:0:
272,20,97010,2,0,P|284:44|288:72,1,53.3333333333333,0|2,0:0|0:0,0:0:0:0:
216,156,97471,2,0,P|204:132|200:104,1,53.3333333333333,0|8,0:0|0:0,0:0:0:0:
322,146,97933,6,0,P|321:172|308:196,1,53.3333333333333,0|12,0:0|0:0,0:0:0:0:
212,252,98394,2,0,P|236:268|248:292,1,53.3333333333333,0|8,0:0|0:0,0:0:0:0:
177,369,98856,1,0,0:0:0:0:
177,370,99010,2,0,P|132:344|108:288,1,106.666666666667,8|0,0:0|0:0,0:0:0:0:
100,244,99471,1,8,0:0:0:0:
100,244,99933,6,0,B|236:80|276:304|412:140,1,360.000013732911,4|0,0:0|0:0,0:0:0:0:
312,92,101779,5,4,0:0:0:0:
200,292,102241,1,8,0:0:0:0:
56,128,102702,1,4,0:0:0:0:
256,192,103164,1,8,0:0:0:0:
100,332,103625,1,4,0:0:0:0:
256,192,103856,12,0,105471,0:0:0:0:
220,128,116548,5,2,0:0:0:0:
312,168,116779,1,2,0:0:0:0:
396,104,117010,1,2,0:0:0:0:
304,64,117241,1,2,0:0:0:0:
220,128,117471,6,0,L|228:208,1,80,2|0,0:0|0:0,0:0:0:0:
320,248,117933,2,0,L|312:168,1,80,8|0,0:0|0:0,0:0:0:0:
235,304,118394,6,0,P|304:348|384:331,1,160,4|8,0:0|0:0,0:0:0:0:
144,171,119317,2,0,P|100:240|116:320,1,160,4|8,0:0|0:0,0:0:0:0:
277,80,120241,2,0,P|208:36|128:52,1,160,4|8,0:0|0:0,0:0:0:0:
64,88,120933,1,0,0:0:0:0:
64,88,121164,2,0,L|76:200,1,80,2|0,0:0|0:0,0:0:0:0:
88,316,121625,1,8,0:0:0:0:
100,324,122087,6,4,L|184:356,1,80,4|0,0:0|0:0,0:0:0:0:
236,304,122548,2,0,P|268:316|316:312,1,80,8|0,0:0|0:0,0:0:0:0:
384,272,123010,1,2,0:0:0:0:
300,188,123241,1,0,0:0:0:0:
300,188,123356,1,0,0:0:0:0:
300,188,123471,1,8,0:0:0:0:
232,228,123702,1,0,0:0:0:0:
292,108,123933,5,2,0:0:0:0:
300,188,124164,1,0,0:0:0:0:
224,148,124394,1,8,0:0:0:0:
216,68,124625,1,0,0:0:0:0:
344,48,124856,6,0,L|408:96,1,80,2|0,0:0|0:0,0:0:0:0:
300,188,125317,2,0,L|312:272,1,80,8|0,0:0|0:0,0:0:0:0:
156,220,125779,6,0,P|80:200|32:136,1,160,4|8,0:0|0:0,0:0:0:0:
300,188,126702,2,0,P|320:263|289:337,1,160,4|8,0:0|0:0,0:0:0:0:
200,84,127625,2,0,P|255:28|334:18,1,160,4|8,0:0|0:0,0:0:0:0:
412,28,128317,1,0,0:0:0:0:
412,28,128548,2,0,P|448:44|476:80,1,80,2|0,0:0|0:0,0:0:0:0:
400,104,129010,2,0,P|344:92|288:116,1,120,8|0,0:0|0:0,0:0:0:0:
281,156,129471,6,0,P|319:167|358:169,1,80,4|0,0:0|0:0,0:0:0:0:
472,160,129933,2,0,P|442:187|421:221,1,80,8|0,0:0|0:0,0:0:0:0:
373,324,130394,1,2,0:0:0:0:
345,249,130625,1,0,0:0:0:0:
345,249,130741,1,0,0:0:0:0:
345,249,130856,1,8,0:0:0:0:
304,180,131087,2,0,P|276:144|248:120,1,80,0|8,0:0|0:0,0:0:0:0:
188,72,131548,5,2,0:0:0:0:
148,60,131779,1,2,0:0:0:0:
108,60,132010,1,2,0:0:0:0:
48,112,132241,5,2,0:0:0:0:
32,148,132471,1,2,0:0:0:0:
28,188,132702,1,2,0:0:0:0:
36,228,132933,1,2,0:0:0:0:
84,292,133164,6,0,P|128:252|132:152,1,160,4|8,0:0|0:0,0:0:0:0:
424,320,134087,2,0,P|367:301|278:348,1,160,4|8,0:0|0:0,0:0:0:0:
276,36,135010,2,0,P|288:94|373:147,1,160,4|8,0:0|0:0,0:0:0:0:
440,116,135702,1,0,0:0:0:0:
440,116,135933,2,0,P|456:152|456:192,1,80,2|0,0:0|0:0,0:0:0:0:
376,284,136394,1,8,0:0:0:0:
380,296,136856,6,0,P|340:324|308:332,1,80,4|0,0:0|0:0,0:0:0:0:
232,328,137317,2,0,P|183:319|155:302,1,80,8|0,0:0|0:0,0:0:0:0:
116,236,137779,1,2,0:0:0:0:
92,120,138010,1,0,0:0:0:0:
92,120,138125,1,0,0:0:0:0:
92,120,138241,1,8,0:0:0:0:
160,164,138471,1,0,0:0:0:0:
244,60,138702,6,0,P|245:101|233:144,1,80,2|0,0:0|0:0,0:0:0:0:
116,236,139164,2,0,P|151:214|194:203,1,80,8|0,0:0|0:0,0:0:0:0:
332,258,139625,5,2,0:0:0:0:
268,212,139856,1,0,0:0:0:0:
404,226,140087,1,8,0:0:0:0:
340,180,140318,1,0,0:0:0:0:
468,272,140548,6,0,P|397:300|331:257,1,160,4|8,0:0|0:0,0:0:0:0:
44,112,141471,2,0,P|115:83|180:127,1,160,4|8,0:0|0:0,0:0:0:0:
320,372,142394,1,4,0:0:0:0:
268,192,142856,5,8,0:0:0:0:
192,284,143087,1,0,0:0:0:0:
120,188,143317,2,0,P|160:168|196:164,1,80,2|0,0:0|0:0,0:0:0:0:
268,192,143779,2,0,P|307:186|342:167,1,80,8|0,0:0|0:0,0:0:0:0:
388,104,144241,5,4,0:0:0:0:
388,104,144471,1,0,0:0:0:0:
316,8,144702,1,8,0:0:0:0:
316,8,144933,1,0,0:0:0:0:
256,116,145164,1,2,0:0:0:0:
195,164,145394,1,0,0:0:0:0:
195,164,145510,1,0,0:0:0:0:
195,164,145625,1,8,0:0:0:0:
268,192,145856,2,0,P|264:232|248:268,1,80,0|8,0:0|0:0,0:0:0:0:
184,316,146317,5,2,0:0:0:0:
144,324,146548,1,2,0:0:0:0:
104,324,146779,1,2,0:0:0:0:
32,364,147010,5,2,0:0:0:0:
20,324,147241,1,2,0:0:0:0:
32,284,147471,1,8,0:0:0:0:
56,252,147702,1,2,0:0:0:0:
136,248,147933,6,0,P|160:216|176:180,2,80,4|0|8,0:0|0:0|0:0,0:0:0:0:
440,228,148856,2,0,P|412:312|344:316,1,160,2|8,0:0|0:0,0:0:0:0:
192,96,149779,2,0,P|256:56|320:104,1,160,2|8,0:0|0:0,0:0:0:0:
161,318,150702,2,0,P|87:302|72:228,1,160,2|8,0:0|0:0,0:0:0:0:
148,88,151625,6,0,L|64:88,2,80,2|0|8,0:0|0:0|0:0,0:0:0:0:
360,32,152548,2,0,P|388:76|344:176,1,160,2|8,0:0|0:0,0:0:0:0:
152,352,153471,2,0,P|124:308|168:208,1,160,2|8,0:0|0:0,0:0:0:0:
460,204,154394,2,0,P|416:252|324:248,1,160,2|8,0:0|0:0,0:0:0:0:
256,52,155317,6,0,P|248:96|224:132,1,80,4|0,0:0|0:0,0:0:0:0:
160,168,155779,1,8,0:0:0:0:
256,332,156241,2,0,P|264:287|288:252,1,80,2|0,0:0|0:0,0:0:0:0:
352,216,156702,1,8,0:0:0:0:
160,168,157164,6,0,P|144:132|140:92,1,80,2|0,0:0|0:0,0:0:0:0:
168,16,157625,1,8,0:0:0:0:
352,216,158087,2,0,P|368:252|372:292,1,80,2|0,0:0|0:0,0:0:0:0:
344,368,158548,1,8,0:0:0:0:
176,284,159010,6,0,P|158:320|126:344,1,80,2|0,0:0|0:0,0:0:0:0:
50,368,159471,1,8,0:0:0:0:
232,174,159933,6,0,P|209:140|205:100,1,80,2|0,0:0|0:0,0:0:0:0:
222,22,160394,1,8,0:0:0:0:
299,278,160856,6,0,P|339:275|375:291,1,80,2|0,0:0|0:0,0:0:0:0:
434,345,161317,1,8,0:0:0:0:
232,174,161779,5,2,0:0:0:0:
232,174,161894,1,2,0:0:0:0:
232,174,162010,2,0,L|192:184,2,40,2|2|8,0:0|0:0|0:0,0:0:0:0:
324,152,162471,1,2,0:0:0:0:
256,52,162702,6,0,P|336:32|408:64,1,160,6|2,0:0|0:0,0:0:0:0:
444,132,163394,2,0,P|440:172|444:216,1,80
496,272,163856,2,0,P|456:292|420:288,1,80,0|2,0:0|0:0,0:0:0:0:
312,240,164317,1,0,0:0:0:0:
312,240,164433,1,0,0:0:0:0:
312,240,164548,6,0,L|296:80,1,160,0|2,0:0|0:0,0:0:0:0:
252,12,165241,2,0,P|292:0|332:8,2,80,0|0|0,0:0|0:0|0:0,0:0:0:0:
212,84,165933,1,8,0:0:0:0:
116,12,166164,1,0,0:0:0:0:
70,125,166394,6,0,P|149:130|212:84,1,160,0|2,0:0|0:0,0:0:0:0:
252,12,167087,1,0,0:0:0:0:
328,36,167317,2,0,P|352:60|376:100,1,80
396,176,167779,1,2,0:0:0:0:
396,176,168010,1,0,0:0:0:0:
248,260,168241,6,0,P|264:320|308:360,1,120,4|0,0:0|0:0,0:0:0:0:
344,368,168702,2,0,L|464:368,1,120,2|0,0:0|0:0,0:0:0:0:
504,368,169164,2,0,P|488:308|443:268,1,120,4|0,0:0|0:0,0:0:0:0:
408,260,169625,2,0,L|288:260,1,120,8|0,0:0|0:0,0:0:0:0:
248,260,170087,2,0,P|192:320|56:192,1,320,4|0,0:0|0:0,0:0:0:0:
264,124,171471,5,2,0:0:0:0:
264,124,171702,2,0,P|320:64|456:192,1,320,2|0,0:0|0:0,0:0:0:0:
180,124,173087,6,0,P|140:128|100:124,2,80,2|8|0,0:0|0:0|0:0,0:0:0:0:
264,124,173779,2,0,B|248:172|280:240|264:284,1,160,2|2,0:0|0:0,0:0:0:0:
176,316,174471,6,0,B|200:260|152:192|176:136,1,180.000006866455,2|2,0:0|0:0,0:0:0:0:
208,76,175394,1,0,0:0:0:0:
296,32,175625,5,4,0:0:0:0:
296,32,175856,1,4,0:0:0:0:
252,184,176317,1,4,0:0:0:0:
120,100,176779,1,2,0:0:0:0:
120,100,176894,1,2,0:0:0:0:
120,100,177010,2,0,P|120:84|116:56,2,40,8|0|0,0:0|0:0|0:0,0:0:0:0:
112,180,177471,6,0,L|168:184,2,53.3333333333333,6|0|0,0:0|0:0|0:0,0:0:0:0:
84,212,177933,2,0,L|30:208,2,53.3333333333333,8|0|0,0:0|0:0|0:0,0:0:0:0:
120,236,178394,2,0,L|176:240,2,53.3333333333333,2|0|0,0:0|0:0|0:0,0:0:0:0:
92,268,178856,2,0,L|38:264,2,53.3333333333333,8|0|0,0:0|0:0|0:0,0:0:0:0:
136,300,179317,5,12,0:0:0:0:
220,368,179625,2,0,P|248:344|260:320,1,53.3333333333333,0|8,0:0|0:0,0:0:0:0:
280,224,180087,1,0,0:0:0:0:
280,224,180241,2,0,P|205:197|169:129,1,160,8|8,0:0|0:0,0:0:0:0:
169,129,181164,6,0,L|157:62,2,53.3333333333333,6|0|0,0:0|0:0|0:0,0:0:0:0:
209,134,181625,2,0,L|230:86,2,53.3333333333333,8|0|0,0:0|0:0|0:0,0:0:0:0:
242,165,182087,2,0,L|279:122,2,53.3333333333333,2|0|0,0:0|0:0|0:0,0:0:0:0:
259,204,182548,2,0,L|311:181,2,53.3333333333333,8|0|0,0:0|0:0|0:0,0:0:0:0:
248,256,183010,5,12,0:0:0:0:
332,324,183317,2,0,P|336:292|344:272,1,53.3333333333333,0|8,0:0|0:0,0:0:0:0:
444,232,183779,1,0,0:0:0:0:
444,232,183933,2,0,P|392:240|340:220,1,106.666666666667,8|0,0:0|0:0,0:0:0:0:
292,200,184394,2,0,P|272:216|244:228,2,53.3333333333333,8|2|2,0:0|0:0|0:0,0:0:0:0:
332,164,184856,5,6,0:0:0:0:
408,88,185164,2,0,P|427:113|436:137,1,53.3333333333333,0|8,0:0|0:0,0:0:0:0:
464,236,185625,2,0,P|451:264|435:284,1,53.3333333333333,0|2,0:0|0:0,0:0:0:0:
356,352,186087,2,0,P|324:355|299:351,1,53.3333333333333,0|8,0:0|0:0,0:0:0:0:
196,336,186548,6,0,P|177:311|168:287,1,53.3333333333333,0|12,0:0|0:0,0:0:0:0:
144,188,187010,2,0,P|124:207|96:215,1,53.3333333333333,0|8,0:0|0:0,0:0:0:0:
20,144,187471,1,0,0:0:0:0:
20,144,187625,2,0,P|55:100|104:92,1,106.666666666667,8|0,0:0|0:0,0:0:0:0:
148,120,188087,1,8,0:0:0:0:
148,120,188548,6,0,B|256:176|364:120|364:120|256:200,1,360.000013732911,4|0,0:0|0:0,0:0:0:0:
129,255,190395,5,4,0:0:0:0:
255,36,190857,1,8,0:0:0:0:
384,256,191317,1,4,0:0:0:0:
148,120,191780,1,8,0:0:0:0:
256,348,192241,1,4,0:0:0:0:
256,192,192471,12,0,193625,0:0:0:0:
368,112,207010,6,0,L|352:276,1,160,4|2,0:0|0:0,0:0:0:0:
340,352,207702,2,0,P|276:328|176:336,1,160
108,356,208394,1,2,0:0:0:0:
160,204,208856,6,0,P|216:200|236:184,1,80
260,112,209317,1,2,0:0:0:0:
220,40,209548,2,0,P|144:36|88:92,1,160
84,172,210241,1,8,0:0:0:0:
244,188,210702,6,0,P|288:184|320:168,1,80
376,108,211164,1,2,0:0:0:0:
416,40,211394,2,0,L|440:200,1,160
452,276,212087,1,2,0:0:0:0:
296,228,212548,6,0,P|282:265|260:298,1,80
184,320,213010,1,2,0:0:0:0:
271,155,213471,6,0,P|331:147|356:151,1,80
406,205,213933,1,8,0:0:0:0:
215,211,214394,6,0,P|189:180|192:64,1,160,4|2,0:0|0:0,0:0:0:0:
268,40,215087,2,0,L|432:24,1,160
500,52,215779,1,2,0:0:0:0:
297,244,216241,6,0,L|320:168,2,80,0|0|2,0:0|0:0|0:0,0:0:0:0:
372,268,216933,2,0,P|316:324|240:300,1,160
220,228,217625,1,8,0:0:0:0:
60,48,218087,6,0,L|140:56,2,80,0|0|2,0:0|0:0|0:0,0:0:0:0:
208,16,218779,2,0,P|216:80|144:136,1,160
80,96,219471,1,2,0:0:0:0:
244,276,219933,5,2,0:0:0:0:
304,224,220164,1,2,0:0:0:0:
180,228,220394,1,2,0:0:0:0:
220,352,220625,1,2,0:0:0:0:
212,358,220856,6,0,L|152:348,1,60.0000022888184,2|0,0:0|0:0,0:0:0:0:
140,344,221317,2,0,P|124:324|116:268,1,80,2|0,0:0|0:0,0:0:0:0:
116,256,221779,6,0,P|168:256|228:292,1,120.000004577637,4|2,0:0|0:0,0:0:0:0:
340,320,222702,2,0,P|313:268|315:209,1,120.000004577637,0|2,0:0|0:0,0:0:0:0:
284,96,223625,2,0,P|252:146|200:174,1,120.000004577637,0|2,0:0|0:0,0:0:0:0:
148,144,224317,1,0,0:0:0:0:
148,144,224548,1,0,0:0:0:0:
188,32,225010,2,0,L|248:28,1,60.0000022888184,2|0,0:0|0:0,0:0:0:0:
308,32,225471,6,0,P|348:40|372:52,1,60.0000022888184,2|0,0:0|0:0,0:0:0:0:
416,84,225933,2,0,P|444:108|460:132,1,60.0000022888184,2|0,0:0|0:0,0:0:0:0:
480,184,226394,1,2,0:0:0:0:
492,244,226625,2,0,L|528:240,2,30.0000011444092,0|0|2,0:0|0:0|0:0,0:0:0:0:
464,295,227087,6,0,P|467:325|468:355,2,60.0000022888184,0|2|0,0:0|0:0|0:0,0:0:0:0:
432,244,227779,1,2,0:0:0:0:
432,244,228010,1,0,0:0:0:0:
388,204,228241,2,0,P|332:192|272:212,1,120.000004577637,0|2,0:0|0:0,0:0:0:0:
336,316,229164,6,0,L|332:376,1,60.0000022888184,4|0,0:0|0:0,0:0:0:0:
288,336,229625,2,0,P|256:344|228:344,1,60.0000022888184,2|0,0:0|0:0,0:0:0:0:
172,324,230087,2,0,P|143:307|123:287,1,60.0000022888184,2|0,0:0|0:0,0:0:0:0:
104,232,230548,2,0,P|132:215|159:208,1,60.0000022888184,2|0,0:0|0:0,0:0:0:0:
216,220,231010,6,0,P|215:252|208:280,1,60.0000022888184,2|0,0:0|0:0,0:0:0:0:
172,324,231471,1,2,0:0:0:0:
120,356,231702,1,0,0:0:0:0:
60,356,231933,1,2,0:0:0:0:
124,192,232394,1,2,0:0:0:0:
132,204,232856,6,0,P|168:216|212:224,1,80,4|0,0:0|0:0,0:0:0:0:
288,228,233317,2,0,P|336:220|368:204,1,80,2|0,0:0|0:0,0:0:0:0:
412,140,233779,1,2,0:0:0:0:
388,64,234010,1,0,0:0:0:0:
388,64,234125,1,0,0:0:0:0:
388,64,234241,1,2,0:0:0:0:
338,127,234471,2,0,P|373:145|417:137,1,80,0|6,0:0|0:0,0:0:0:0:
488,112,234933,5,2,0:0:0:0:
436,52,235164,1,2,0:0:0:0:
360,32,235394,1,2,0:0:0:0:
268,84,235625,5,2,0:0:0:0:
268,172,235856,1,2,0:0:0:0:
320,244,236087,1,2,0:0:0:0:
404,264,236317,1,2,0:0:0:0:
484,196,236548,6,0,P|488:112|440:56,1,160,4|8,0:0|0:0,0:0:0:0:
156,84,237471,2,0,P|220:112|312:104,1,160,4|8,0:0|0:0,0:0:0:0:
356,300,238394,2,0,P|292:272|200:280,1,160,4|8,0:0|0:0,0:0:0:0:
144,332,239087,1,0,0:0:0:0:
144,332,239317,2,0,L|112:252,1,80,2|0,0:0|0:0,0:0:0:0:
196,120,239779,2,0,L|200:200,1,80,8|0,0:0|0:0,0:0:0:0:
150,54,240241,5,4,0:0:0:0:
229,47,240471,1,0,0:0:0:0:
275,112,240702,1,8,0:0:0:0:
162,192,240933,1,0,0:0:0:0:
116,126,241164,1,2,0:0:0:0:
150,54,241394,1,0,0:0:0:0:
150,54,241510,1,0,0:0:0:0:
150,54,241625,1,8,0:0:0:0:
275,112,241856,1,0,0:0:0:0:
241,185,242087,6,0,P|200:196|160:192,1,80,2|0,0:0|0:0,0:0:0:0:
280,254,242548,2,0,P|277:296|261:333,1,80,8|0,0:0|0:0,0:0:0:0:
358,237,243010,5,2,0:0:0:0:
425,276,243241,1,0,0:0:0:0:
367,158,243471,1,8,0:0:0:0:
425,105,243702,1,0,0:0:0:0:
294,125,243933,6,0,P|264:52|192:24,1,160,4|8,0:0|0:0,0:0:0:0:
44,168,244856,2,0,P|100:216|184:204,1,160,4|8,0:0|0:0,0:0:0:0:
468,216,245779,2,0,P|412:168|328:180,1,160,4|8,0:0|0:0,0:0:0:0:
268,228,246471,1,0,0:0:0:0:
296,344,246702,1,2,0:0:0:0:
317,352,247164,6,0,P|357:351|397:344,1,80,8|0,0:0|0:0,0:0:0:0:
396,344,247625,2,0,P|392:292|380:264,1,80,4|0,0:0|0:0,0:0:0:0:
460,168,248087,2,0,P|408:172|380:184,1,80,8|0,0:0|0:0,0:0:0:0:
284,104,248548,1,2,0:0:0:0:
298,181,248779,1,0,0:0:0:0:
298,181,248894,1,0,0:0:0:0:
298,181,249010,1,8,0:0:0:0:
220,279,249241,2,0,P|272:275|299:263,1,80,0|8,0:0|0:0,0:0:0:0:
344,196,249702,5,2,0:0:0:0:
352,156,249933,1,2,0:0:0:0:
352,116,250164,1,2,0:0:0:0:
300,56,250394,5,2,0:0:0:0:
272,84,250625,1,2,0:0:0:0:
196,116,250856,5,2,0:0:0:0:
188,118,250971,1,0,0:0:0:0:
180,119,251087,1,2,0:0:0:0:
100,104,251317,6,0,L|84:184,1,80,4|0,0:0|0:0,0:0:0:0:
96,260,251779,2,0,L|80:340,1,80,8|0,0:0|0:0,0:0:0:0:
156,364,252241,2,0,P|188:344|232:332,1,80,2|0,0:0|0:0,0:0:0:0:
308,320,252702,1,8,0:0:0:0:
308,320,252933,1,0,0:0:0:0:
432,352,253164,6,0,P|400:324|387:284,1,80,2|0,0:0|0:0,0:0:0:0:
499,210,253625,2,0,P|492:249|468:280,1,80,8|0,0:0|0:0,0:0:0:0:
420,216,254087,1,2,0:0:0:0:
420,216,254317,1,0,0:0:0:0:
464,108,254548,2,0,P|432:120|384:124,1,80,8|0,0:0|0:0,0:0:0:0:
308,108,255010,6,0,P|276:104|228:108,1,80,2|0,0:0|0:0,0:0:0:0:
80,148,255471,2,0,P|118:135|151:113,1,80,8|0,0:0|0:0,0:0:0:0:
184,40,255933,1,2,0:0:0:0:
184,40,256164,1,0,0:0:0:0:
308,108,256394,2,0,P|308:148|296:188,1,80,8|0,0:0|0:0,0:0:0:0:
244,244,256856,1,8,0:0:0:0:
244,244,257087,5,2,0:0:0:0:
180,254,257317,1,2,0:0:0:0:
125,222,257548,1,2,0:0:0:0:
126,101,257779,5,2,0:0:0:0:
181,70,258010,1,2,0:0:0:0:
244,81,258241,1,2,0:0:0:0:
285,131,258471,1,2,0:0:0:0:
244,244,258702,6,0,P|204:260|168:252,1,80,4|0,0:0|0:0,0:0:0:0:
152,116,259164,2,0,P|185:142|196:177,1,80,8|0,0:0|0:0,0:0:0:0:
116,316,259625,1,2,0:0:0:0:
116,316,260087,1,8,0:0:0:0:
188,352,260317,1,0,0:0:0:0:
244,244,260548,6,0,L|324:232,1,80,2|0,0:0|0:0,0:0:0:0:
172,208,261010,2,0,L|224:148,1,80,8|0,0:0|0:0,0:0:0:0:
324,32,261471,1,2,0:0:0:0:
324,32,261933,1,8,0:0:0:0:
400,4,262164,1,0,0:0:0:0:
488,84,262394,6,0,L|480:168,1,80,2|0,0:0|0:0,0:0:0:0:
391,228,262856,2,0,P|431:227|468:244,1,80,8|0,0:0|0:0,0:0:0:0:
360,352,263317,1,2,0:0:0:0:
360,352,263779,2,0,P|320:352|283:336,1,80,8|0,0:0|0:0,0:0:0:0:
204,248,264241,1,8,0:0:0:0:
204,248,264471,5,2,0:0:0:0:
249,202,264702,1,2,0:0:0:0:
312,219,264933,1,2,0:0:0:0:
175,172,265164,5,2,0:0:0:0:
180,93,265394,1,2,0:0:0:0:
257,73,265625,1,8,0:0:0:0:
300,140,265856,1,2,0:0:0:0:
249,202,266087,5,4,0:0:0:0:
