osu file format v13

[General]
AudioFilename: Saotome no Yuugi soshite Ryuugi.mp3
AudioLeadIn: 0
PreviewTime: 236433
Countdown: 0
SampleSet: Soft
StackLeniency: 0.6
Mode: 0
LetterboxInBreaks: 1
WidescreenStoryboard: 0

[Editor]
Bookmarks: 10394,27933,57471,81471,115625,146087,170087,205164,232856,236433
DistanceSpacing: 1
BeatDivisor: 4
GridSize: 4
TimelineZoom: 1.3

[Metadata]
Title:Saotome no Yuugi soshite Ryuugi
TitleUnicode:早乙女の遊戯そして流儀
Artist:=NeutraL=
ArtistUnicode:=NeutraL=
Creator:PEPOTTI
Version:Easy
Source:Touhou
Tags:コツキミヤ kotsuki miya SENTIVE 桜華結界 -Perfect Cherry Blossom- 東方紅魔郷 u.n owen was her flandre scarlet
BeatmapID:439844
BeatmapSetID:183623

[Difficulty]
HPDrainRate:3
CircleSize:3
OverallDifficulty:2
ApproachRate:3
SliderMultiplier:0.8
SliderTickRate:1

[Events]
//Background and Video events
0,0,"Scarlet SisterS.jpg",0,0
//Break Periods
2,105671,115108
2,194087,205570
//Storyboard Layer 0 (Background)
//Storyboard Layer 1 (Fail)
//Storyboard Layer 2 (Pass)
//Storyboard Layer 3 (Foreground)
//Storyboard Sound Samples

[TimingPoints]
241,461.538461538462,4,2,0,70,1,0
11087,-100,4,2,0,30,0,0
12933,-100,4,2,0,50,0,0
13856,-100,4,2,0,60,0,0
14779,-100,4,2,0,70,0,0
29779,-100,4,2,0,70,0,1
42933,-100,4,2,0,50,0,1
44317,-100,4,2,0,70,0,1
57702,-100,4,2,0,50,0,1
58394,-100,4,1,1,35,0,1
59317,-100,4,2,0,70,0,0
64625,-100,4,2,0,50,0,0
66010,-100,4,1,1,45,0,0
66471,-100,4,2,0,70,0,0
73394,-100,4,1,1,40,0,0
73856,-100,4,2,0,70,0,0
79394,-100,4,2,0,55,0,0
80779,-100,4,1,1,50,0,0
81241,-100,4,2,0,70,0,0
86779,-100,4,2,0,50,0,0
88856,-100,4,2,0,70,0,0
99933,-100,4,2,0,70,0,0
116087,-100,4,2,0,90,0,0
118394,-100,4,2,0,70,0,1
131548,-100,4,2,0,50,0,1
132933,-100,4,2,0,70,0,1
146317,-100,4,2,0,50,0,1
147010,-100,4,1,1,35,0,1
147933,-100,4,2,0,70,0,0
154625,-100,4,1,1,40,0,0
155087,-100,4,2,0,70,0,0
158317,-100,4,1,1,40,0,0
158779,-100,4,2,0,70,0,0
162010,-100,4,1,1,40,0,0
162471,-100,4,2,0,70,0,0
168010,-100,4,2,0,50,0,0
169394,-100,4,1,1,45,0,0
169856,-100,4,2,0,70,0,0
175394,-100,4,2,0,50,0,0
177471,-100,4,2,0,70,0,0
188548,-100,4,2,0,70,0,0
191779,-100,4,2,0,50,0,0
194087,-100,4,2,0,70,0,0
210010,-100,4,1,1,40,0,0
210471,-100,4,2,0,70,0,0
213702,-100,4,1,1,40,0,0
214164,-100,4,2,0,70,0,0
217394,-100,4,1,1,40,0,0
217856,-100,4,2,0,70,0,0
219702,-100,4,2,0,90,0,0
220625,-100,4,2,0,20,0,0
221087,-100,4,2,0,30,0,0
227779,-100,4,2,0,50,0,0
231471,-100,4,2,0,60,0,0
232394,-100,4,2,0,70,0,0
234010,-100,4,2,0,85,0,0
234933,-100,4,2,0,75,0,0
236548,-100,4,2,0,80,0,1
249702,-100,4,2,0,60,0,1
250625,-100,4,2,0,70,0,1
251317,-100,4,2,0,70,0,0
257087,-100,4,2,0,75,0,0
258471,-100,4,2,0,80,0,0

[Colours]
Combo1 : 222,189,114
Combo2 : 227,108,135
Combo3 : 166,135,245
Combo4 : 233,158,230

[HitObjects]
240,32,11317,6,0,P|144:44|60:152,1,240,2|2,0:0|0:0,0:0:0:0:
60,232,13164,2,0,P|125:329|240:352,1,240,2|2,0:0|0:0,0:0:0:0:
320,336,15010,6,0,L|296:260,1,80,4|8,0:0|0:0,0:0:0:0:
272,184,15933,1,2,0:0:0:0:
216,32,16856,6,0,P|260:44|304:44,1,80,2|8,0:0|0:0,0:0:0:0:
372,32,17779,1,2,0:0:0:0:
512,112,18702,6,0,L|504:192,1,80,2|8,0:0|0:0,0:0:0:0:
496,272,19625,1,2,0:0:0:0:
356,352,20548,6,0,L|292:304,1,80,4|8,0:0|0:0,0:0:0:0:
228,256,21471,2,0,P|200:228|184:192,1,80,4|8,0:0|0:0,0:0:0:0:
180,112,22394,5,4,0:0:0:0:
256,84,22856,2,0,L|332:60,1,80,8|2,0:0|0:0,0:0:0:0:
488,20,24241,5,2,0:0:0:0:
476,100,24702,2,0,P|460:148|440:172,1,80,8|2,0:0|0:0,0:0:0:0:
296,236,26087,5,2,0:0:0:0:
284,156,26548,2,0,P|264:116|236:92,1,80,8|2,0:0|0:0,0:0:0:0:
80,64,27933,6,0,P|80:112|64:148,1,80,4|8,0:0|0:0,0:0:0:0:
31,212,28856,2,0,L|80:276,1,80,4|8,0:0|0:0,0:0:0:0:
28,336,29779,6,0,P|112:348|136:220,1,240,4|8,0:0|0:0,0:0:0:0:
84,164,31625,2,0,P|84:55|193:49,1,240,4|8,0:0|0:0,0:0:0:0:
256,100,33471,6,0,L|256:184,2,80,4|8|2,0:0|0:0|0:0,0:0:0:0:
416,100,35317,2,0,L|416:20,2,80,2|8|2,0:0|0:0|0:0,0:0:0:0:
468,252,37164,6,0,P|416:340|292:312,1,240,4|8,0:0|0:0,0:0:0:0:
216,316,39010,2,0,P|107:345|44:252,1,240,4|8,0:0|0:0,0:0:0:0:
48,172,40856,5,4,0:0:0:0:
140,40,41779,1,2,0:0:0:0:
300,36,42702,1,8,0:0:0:0:
368,80,43164,2,0,P|296:116|232:80,1,160,2|2,0:0|0:0,0:0:0:0:
180,20,44548,6,0,P|68:36|32:148,1,240,4|8,0:0|0:0,0:0:0:0:
68,216,46394,2,0,L|312:172,1,240,4|8,0:0|0:0,0:0:0:0:
384,160,48241,6,0,P|408:196|416:236,2,80,4|8|2,0:0|0:0|0:0,0:0:0:0:
336,312,50087,2,0,P|312:276|304:236,2,80,2|8|2,0:0|0:0|0:0,0:0:0:0:
384,160,51933,6,0,L|143:116,1,240,4|8,0:0|0:0,0:0:0:0:
68,104,53779,1,4,0:0:0:0:
116,40,54241,2,0,P|160:20|276:24,1,160,8|8,0:0|0:0,0:0:0:0:
336,68,55625,5,4,0:0:0:0:
320,228,56548,1,2,0:0:0:0:
188,136,57471,1,8,0:0:0:0:
176,216,57933,2,0,P|176:280|232:356,1,160,2|8,0:0|0:0,0:0:0:0:
308,376,59317,1,4,0:0:0:0:
464,336,60241,6,0,L|472:244,1,80,0|2,0:0|0:0,0:0:0:0:
476,176,61164,2,0,P|476:116|428:28,1,160,2|0,0:0|0:0,0:0:0:0:
304,128,63010,2,0,P|304:188|352:276,1,160,2|0,0:0|0:0,0:0:0:0:
200,332,64856,6,0,L|120:320,1,80,4|2,0:0|0:0,0:0:0:0:
96,244,65779,2,0,L|16:232,2,80,4|8|4,0:0|0:0|0:0,0:0:0:0:
40,92,67625,6,0,P|48:52|76:24,1,80,0|2,0:0|0:0,0:0:0:0:
120,92,68548,2,0,P|176:120|280:112,1,160,2|0,0:0|0:0,0:0:0:0:
376,240,70394,2,0,P|320:212|216:220,1,160,2|0,0:0|0:0,0:0:0:0:
152,360,72241,6,0,L|232:352,1,80,0|2,0:0|0:0,0:0:0:0:
312,344,73164,2,0,L|392:352,1,80,0|8,0:0|0:0,0:0:0:0:
472,364,74087,1,4,0:0:0:0:
468,204,75010,6,0,L|384:224,1,80,0|2,0:0|0:0,0:0:0:0:
372,300,75933,2,0,P|312:232|328:172,1,160,2|0,0:0|0:0,0:0:0:0:
260,28,77779,2,0,P|231:113|171:130,1,160,2|0,0:0|0:0,0:0:0:0:
80,260,79625,6,0,L|152:224,1,80,4|2,0:0|0:0,0:0:0:0:
204,284,80548,2,0,L|132:320,1,80,4|8,0:0|0:0,0:0:0:0:
80,260,81471,6,0,P|44:188|80:120,1,160,4|0,0:0|0:0,0:0:0:0:
140,72,82856,1,2,0:0:0:0:
152,152,83317,2,0,P|212:160|312:136,1,160,2|0,0:0|0:0,0:0:0:0:
448,60,85164,6,0,L|456:144,1,80,2|2,0:0|0:0,0:0:0:0:
460,220,86087,2,0,P|452:264|432:296,1,80,2|2,0:0|0:0,0:0:0:0:
368,336,87010,1,4,0:0:0:0:
256,220,87933,1,0,0:0:0:0:
380,116,88856,6,0,P|260:40|172:80,1,240,6|8,0:0|0:0,0:0:0:0:
124,132,90702,2,0,L|112:212,1,80,12|8,0:0|0:0,0:0:0:0:
100,292,91625,1,8,0:0:0:0:
244,360,92548,6,0,P|296:336|272:176,1,240,6|8,0:0|0:0,0:0:0:0:
204,156,94394,2,0,L|116:164,1,80,12|8,0:0|0:0,0:0:0:0:
44,172,95317,1,8,0:0:0:0:
152,52,96241,6,0,P|212:72|388:40,1,240,6|8,0:0|0:0,0:0:0:0:
448,88,98087,2,0,P|468:124|480:168,1,80,12|8,0:0|0:0,0:0:0:0:
484,240,99010,1,8,0:0:0:0:
356,336,99933,6,0,P|282:273|376:255,1,240,4|0,0:0|0:0,0:0:0:0:
432,312,101779,2,0,P|452:280|452:232,1,80,4|8,0:0|0:0,0:0:0:0:
404,176,102702,1,4,0:0:0:0:
256,192,103625,12,0,105471,0:0:0:0:
172,312,116548,6,0,L|256:312,2,80,2|2|2,0:0|0:0|0:0,0:0:0:0:
52,208,118394,6,0,P|104:140|244:164,1,240,4|8,0:0|0:0,0:0:0:0:
272,236,120241,2,0,P|380:270|462:190,1,240,4|8,0:0|0:0,0:0:0:0:
464,108,122087,6,0,P|454:69|432:36,2,80,4|8|2,0:0|0:0|0:0,0:0:0:0:
328,192,123933,2,0,P|366:202|406:200,2,80,2|8|2,0:0|0:0|0:0,0:0:0:0:
323,32,125779,6,0,P|256:120|132:152,1,240,4|8,0:0|0:0,0:0:0:0:
132,232,127625,2,0,P|241:246|331:337,1,240,4|8,0:0|0:0,0:0:0:0:
256,364,129471,5,4,0:0:0:0:
104,308,130394,1,2,0:0:0:0:
56,156,131317,1,8,0:0:0:0:
124,116,131779,2,0,P|124:196|60:236,1,160,2|2,0:0|0:0,0:0:0:0:
56,156,133164,6,0,P|88:44|188:68,1,240,4|8,0:0|0:0,0:0:0:0:
208,144,135010,2,0,P|272:204|420:220,1,240,4|8,0:0|0:0,0:0:0:0:
492,188,136856,6,0,P|500:220|484:268,2,80,4|8|2,0:0|0:0|0:0,0:0:0:0:
332,168,138702,2,0,P|355:145|405:134,2,80,2|8|2,0:0|0:0|0:0,0:0:0:0:
394,316,140548,6,0,P|316:348|160:344,1,240,4|8,0:0|0:0,0:0:0:0:
96,300,142394,1,4,0:0:0:0:
60,228,142856,2,0,L|220:196,1,160,8|8,0:0|0:0,0:0:0:0:
296,180,144240,5,4,0:0:0:0:
444,244,145163,1,2,0:0:0:0:
452,84,146086,1,8,0:0:0:0:
387,132,146548,2,0,P|308:138|240:100,1,160,2|8,0:0|0:0,0:0:0:0:
196,32,147933,6,0,L|116:36,2,80,4|8|2,0:0|0:0|0:0,0:0:0:0:
276,28,149317,1,8,0:0:0:0:
240,100,149779,2,0,P|204:124|168:128,1,80,2|8,0:0|0:0,0:0:0:0:
88,112,150702,1,2,0:0:0:0:
24,256,151625,6,0,P|56:336|196:328,1,240,2|8,0:0|0:0,0:0:0:0:
244,272,153471,2,0,P|354:251|412:347,1,240,2|8,0:0|0:0,0:0:0:0:
492,356,155317,6,0,L|484:272,1,80,4|8,0:0|0:0,0:0:0:0:
480,196,156241,1,2,0:0:0:0:
320,180,157164,2,0,L|327:259,2,80,2|8|2,0:0|0:0|0:0,0:0:0:0:
312,100,158548,1,8,0:0:0:0:
252,48,159010,6,0,P|168:72|212:188,1,240,2|8,0:0|0:0,0:0:0:0:
288,204,160856,2,0,P|342:296|246:343,1,240,2|8,0:0|0:0,0:0:0:0:
184,292,162702,1,4,0:0:0:0:
52,200,163625,6,0,L|136:180,1,80,0|2,0:0|0:0,0:0:0:0:
208,164,164548,2,0,P|244:96|312:52,1,160,2|0,0:0|0:0,0:0:0:0:
448,136,166394,2,0,P|488:201|492:282,1,160,2|0,0:0|0:0,0:0:0:0:
352,357,168241,6,0,P|312:364|272:360,1,80,4|2,0:0|0:0,0:0:0:0:
208,312,169164,2,0,P|168:308|129:315,1,80,4|8,0:0|0:0,0:0:0:0:
56,348,170087,6,0,L|32:180,1,160,4|0,0:0|0:0,0:0:0:0:
24,112,171471,1,2,0:0:0:0:
96,80,171933,2,0,L|118:238,1,160,2|0,0:0|0:0,0:0:0:0:
244,340,173779,6,0,P|276:316|316:304,1,80,2|2,0:0|0:0,0:0:0:0:
364,240,174702,2,0,P|327:224|296:195,1,80,2|2,0:0|0:0,0:0:0:0:
276,120,175625,1,4,0:0:0:0:
420,48,176548,1,0,0:0:0:0:
476,197,177471,6,0,P|360:201|276:120,1,240,6|8,0:0|0:0,0:0:0:0:
260,40,179317,2,0,L|180:48,1,80,12|8,0:0|0:0,0:0:0:0:
100,60,180240,1,8,0:0:0:0:
32,204,181164,6,0,P|156:192|232:276,1,240,6|8,0:0|0:0,0:0:0:0:
240,348,183010,2,0,P|204:368|164:372,1,80,12|8,0:0|0:0,0:0:0:0:
88,356,183932,1,8,0:0:0:0:
32,204,184856,6,0,P|96:164|256:176,1,240,6|8,0:0|0:0,0:0:0:0:
320,224,186702,2,0,P|360:236|404:236,1,80,12|8,0:0|0:0,0:0:0:0:
472,204,187625,1,8,0:0:0:0:
372,80,188548,6,0,B|256:28|256:132|140:80,1,240,4|0,0:0|0:0,0:0:0:0:
72,124,190394,2,0,P|84:160|84:204,1,80,4|8,0:0|0:0,0:0:0:0:
72,280,191317,1,4,0:0:0:0:
212,356,192241,6,0,P|284:308|436:296,1,240,4|0,0:0|0:0,0:0:0:0:
216,64,207010,6,0,P|256:56|296:64,1,80,4|2,0:0|0:0,0:0:0:0:
408,176,208394,1,2,0:0:0:0:
432,252,208856,6,0,L|416:336,1,80,0|2,0:0|0:0,0:0:0:0:
256,312,210241,1,8,0:0:0:0:
256,232,210702,6,0,L|256:144,1,80,0|2,0:0|0:0,0:0:0:0:
180,12,212087,1,2,0:0:0:0:
112,52,212548,6,0,L|96:132,1,80,0|2,0:0|0:0,0:0:0:0:
80,208,213471,2,0,L|96:288,1,80,0|8,0:0|0:0,0:0:0:0:
112,364,214394,6,0,P|156:376|192:376,1,80,4|2,0:0|0:0,0:0:0:0:
328,296,215779,1,2,0:0:0:0:
404,272,216241,6,0,P|437:271|484:280,1,80,0|2,0:0|0:0,0:0:0:0:
464,120,217625,1,8,0:0:0:0:
388,144,218087,6,0,P|354:144|308:136,1,80,0|2,0:0|0:0,0:0:0:0:
172,56,219471,1,2,0:0:0:0:
100,96,219933,6,0,L|100:176,2,80,2|2|2,0:0|0:0|0:0,0:0:0:0:
228,192,221779,6,0,P|244:268|216:344,1,160,4|0,0:0|0:0,0:0:0:0:
348,252,223625,2,0,P|332:176|360:100,1,160,2|0,0:0|0:0,0:0:0:0:
492,192,225471,5,2,0:0:0:0:
412,332,226394,1,2,0:0:0:0:
256,364,227317,1,2,0:0:0:0:
100,332,228241,1,0,0:0:0:0:
32,188,229164,6,0,P|108:172|184:200,1,160,4|0,0:0|0:0,0:0:0:0:
316,292,231010,2,0,P|400:292|452:240,1,160,2|2,0:0|0:0,0:0:0:0:
428,84,232856,6,0,P|392:64|352:60,1,80,4|2,0:0|0:0,0:0:0:0:
280,92,233779,2,0,L|268:172,1,80,2|2,0:0|0:0,0:0:0:0:
252,248,234702,1,4,0:0:0:0:
192,196,235164,2,0,P|116:168|36:184,1,160,2|2,0:0|0:0,0:0:0:0:
28,260,236548,6,0,P|48:292|84:316,1,80,4|8,0:0|0:0,0:0:0:0:
164,324,237471,2,0,L|244:332,2,80,4|8|4,0:0|0:0|0:0,0:0:0:0:
72,192,239317,1,2,0:0:0:0:
164,60,240241,6,0,L|244:52,1,80,4|8,0:0|0:0,0:0:0:0:
324,40,241164,2,0,P|396:44|468:104,1,160,2|2,0:0|0:0,0:0:0:0:
340,200,243010,1,2,0:0:0:0:
196,132,243933,6,0,L|204:212,1,80,4|8,0:0|0:0,0:0:0:0:
216,292,244856,2,0,L|300:332,1,80,4|8,0:0|0:0,0:0:0:0:
364,300,245779,2,0,P|432:312|496:256,1,160,4|2,0:0|0:0,0:0:0:0:
500,176,247164,1,8,0:0:0:0:
468,104,247625,6,0,P|408:112|308:100,1,160,4|2,0:0|0:0,0:0:0:0:
240,64,249010,1,8,0:0:0:0:
184,8,249471,1,8,0:0:0:0:
124,60,249933,2,0,P|136:136|100:208,1,160,2|2,0:0|0:0,0:0:0:0:
28,244,251317,5,4,0:0:0:0:
96,288,251779,2,0,L|180:276,1,80,8|2,0:0|0:0,0:0:0:0:
332,256,253164,5,2,0:0:0:0:
412,240,253625,2,0,P|444:212|460:176,1,80,8|2,0:0|0:0,0:0:0:0:
464,20,255010,5,2,0:0:0:0:
400,68,255471,2,0,P|360:72|320:68,1,80,8|2,0:0|0:0,0:0:0:0:
168,24,256856,6,0,L|152:104,1,80,8|2,0:0|0:0,0:0:0:0:
136,180,257779,2,0,L|120:260,1,80,2|2,0:0|0:0,0:0:0:0:
108,336,258702,6,0,P|144:336|192:344,1,80,4|8,0:0|0:0,0:0:0:0:
264,368,259625,1,2,0:0:0:0:
416,320,260548,6,0,P|397:288|380:243,1,80,4|8,0:0|0:0,0:0:0:0:
372,168,261471,1,2,0:0:0:0:
252,60,262394,6,0,P|233:91|203:128,1,80,4|8,0:0|0:0,0:0:0:0:
144,176,263317,1,2,0:0:0:0:
96,24,264241,6,0,L|184:44,1,80,8|2,0:0|0:0,0:0:0:0:
252,60,265164,1,2,0:0:0:0:
332,76,265625,1,8,0:0:0:0:
356,152,266087,5,4,0:0:0:0:
