osu file format v7

[General]
AudioFilename: 04 - .mp3
AudioLeadIn: 0
PreviewTime: 29612
Countdown: 0
SampleSet: Soft
StackLeniency: 0.3
Mode: 0
LetterboxInBreaks: 1

[Editor]
DistanceSpacing: 1
BeatDivisor: 4
GridSize: 8

[Metadata]
Title:Saotome no Yuugi Soshite Ryuugi
Artist:=NeutraL=
Creator:Ex Boy
Version:Normal
Source:Touhou
Tags:Kotsuki Miya SENTIVE

[Difficulty]
HPDrainRate:3
CircleSize:4
OverallDifficulty:4
SliderMultiplier:1.2
SliderTickRate:1

[Events]
//Background and Video events
0,0,"3409246.png"
//Break Periods
2,42735,43061
2,59350,65907
2,72965,73292
2,105273,115061
2,147966,161676
2,174965,175984
//Storyboard Layer 0 (Background)
//Storyboard Layer 1 (Fail)
//Storyboard Layer 2 (Pass)
//Storyboard Layer 3 (Foreground)
//Storyboard Sound Samples
//Background Colour Transformations
3,100,255,255,255

[TimingPoints]
1920,461.538461538462,4,2,1,70,1,0
57189,-100,4,2,1,1,0,0
59266,-100,4,2,1,70,0,0
88709,-100,4,2,1,80,0,0
103689,-100,4,2,1,2,0,0
105189,-100,4,2,1,70,0,0
146035,-100,4,2,1,2,0,0
147881,-100,4,2,1,70,0,0
177304,-100,4,2,1,80,0,0
188381,-100,4,2,1,0,0,0
190343,-100,4,2,1,70,0,0
192189,-100,4,1,1,1,0,0

[Colours]
Combo1 : 255,255,255
Combo2 : 251,67,34
Combo3 : 252,217,109
Combo4 : 253,253,53

[HitObjects]
56,56,29612,1,8
160,112,30073,1,0
264,56,30535,1,8
368,112,30996,1,0
264,176,31458,1,8
368,232,31920,1,0
315,261,32150,1,0
265,294,32381,1,8
163,231,32843,1,0
40,232,33304,6,0,L|40:144,2,60,8|0|0
104,232,33996,2,0,L|104:296,2,60,0|8|0
104,168,34689,2,0,L|104:96,1,60
168,112,35150,1,8
227,112,35381,1,0
287,112,35612,1,0
347,112,35843,1,0
407,112,36073,1,8
248,296,36996,5,8
248,176,37458,1,0
248,56,37920,1,8
248,175,38381,1,0
368,175,38843,1,8
248,175,39304,1,0
188,175,39535,1,0
128,175,39766,1,8
248,175,40227,1,0
256,56,40689,5,8
316,56,40920,1,0
376,56,41150,1,0
435,56,41381,1,0
478,98,41612,2,0,C|456:120|480:144|456:160|480:176|456:192|480:208|456:224|480:240|464:248,1,240,8|8
48,328,44381,6,0,C|48:192,1,120,8|0
168,200,45304,2,0,C|168:80,1,120,8|0
48,80,46227,1,8
168,80,46689,1,0
232,80,46920,1,0
296,80,47150,1,8
232,184,47612,1,0
352,184,48073,6,0,C|280:184,2,60,8|0|0
392,232,48766,2,0,C|472:232,2,60,0|8|0
352,280,49458,2,0,C|288:280,1,60
248,232,49920,1,8
208,280,50150,1,0
168,232,50381,1,0
128,280,50612,1,0
88,232,50843,1,8
296,120,51766,6,0,C|176:120,1,120,8|0
240,216,52689,2,0,C|384:216,1,120,8|0
240,216,53612,1,8
120,216,54073,1,0
72,184,54304,1,0
120,152,54535,1,8
232,184,54996,1,0
280,296,55458,6,0,C|200:296,2,60,8|0|0
328,256,56150,2,0,L|400:256,2,60,0|8|0
280,216,56843,2,0,L|208:216,1,60
256,192,57304,12,4,59150
256,40,67227,5,8
256,104,67458,1,0
256,168,67689,1,0
256,232,67920,1,0
256,296,68150,1,8
256,355,68381,2,0,B|384:355,1,120
436,355,69073,5,8
436,296,69304,1,0
436,235,69535,1,0
436,175,69766,1,0
436,115,69996,1,8
394,73,70227,2,2,B|324:104|266:68,2,120
277,74,71612,1,8
157,74,72073,1,0
217,74,72304,2,0,B|218:142,2,60,0|8|0
48,336,74612,6,0,B|120:336,2,60,8|0|0
48,272,75304,2,0,B|48:200,1,60,0|8
104,216,75766,2,0,B|248:216,1,120
288,216,76458,5,8
288,276,76689,1,0
348,276,76920,1,0
348,216,77150,1,0
407,216,77381,2,0,B|407:304,1,60,8|0
407,155,78073,1,0
407,95,78304,2,0,B|280:96,1,120,8|0
168,96,79227,5,8
107,96,79458,1,8
228,96,79920,1,8
107,96,80381,1,8
228,96,80843,1,8
347,96,81304,2,2,B|386:41|475:56,2,120,8|0|8
347,216,82689,5,0
347,276,82919,2,0,B|380:231|413:325|481:259,2,120,8|0|8
232,272,84304,2,8,B|40:272,1,180
56,152,85458,1,8
56,152,85689,1,0
232,152,86381,5,8
288,152,86612,1,8
344,152,86843,1,8
344,152,87073,1,8
464,152,87535,1,8
464,152,87766,1,8
464,152,87996,1,8
384,312,88689,6,0,B|298:278,1,80,2|0
309,242,89150,2,0,B|388:209,1,80,2|0
383,170,89612,2,0,B|304:131,1,80,2|0
271,134,90073,2,0,B|195:170,1,80,2|0
198,208,90535,2,2,B|256:240,5,40
232,264,91458,2,6,B|161:300|97:251,1,120
72,136,92381,6,0,B|155:136,1,80,2|0
168,168,92843,2,0,B|254:168,1,80,2|0
264,136,93304,2,0,B|346:137,1,80,2|0
368,104,93766,2,0,B|451:104,1,80,2|0
472,136,94227,2,2,B|416:136,5,40
408,168,95150,2,6,B|369:229|411:291,1,120
288,280,96073,6,0,B|288:363,1,80,2|0
248,360,96535,2,0,B|248:268,1,80,2|0
208,280,96996,2,0,B|208:363,1,80,2|0
168,360,97458,2,0,B|169:270,1,80,2|0
168,240,97919,2,2,B|240:240,5,40
224,200,98843,2,6,B|196:144|129:207|96:146,1,120
39,47,99766,6,2,B|157:48|281:58|389:148|435:275,1,480
311,265,102073,1,8
191,265,102535,1,8
191,145,102996,1,8
311,145,103458,1,8
256,192,103573,12,0,105073
256,224,116381,6,8,L|256:152,3,60
256,168,117766,1,0
256,48,118227,6,0,L|120:48,1,120,8|0
136,48,119150,2,0,L|136:192,1,120,8|0
136,168,120073,1,8
256,168,120535,1,0
256,228,120766,1,0
256,287,120996,1,8
136,288,121458,1,0
64,192,121919,6,0,B|96:160|136:224|200:184,3,120,8|0|8|0
264,112,123766,1,8
312,152,123996,1,0
336,208,124227,1,0
336,272,124458,1,0
312,328,124689,2,0,B|384:368|448:312,1,120,8|0
472,216,125612,5,8
352,216,126073,1,0
472,216,126535,1,8
352,216,126996,1,0
472,216,127458,1,8
352,216,127919,1,0
320,160,128150,1,0
288,104,128381,1,8
408,104,128843,1,0
288,104,129304,6,0,B|208:104,3,60,8|0|0|0
168,104,130227,2,0,B|112:104|112:184|56:184,4,120,8|0|8|0|8
168,224,132535,1,0
288,224,132996,6,0,B|288:352,1,120,8|0
288,224,133919,2,0,B|288:88,1,120,8|0
288,224,134843,2,0,B|416:224,1,120,8|0
472,224,135535,1,0
408,224,135766,2,0,B|408:80,1,120,8|0
288,88,136689,6,0,B|248:120|224:48|152:104,3,120,8|0|8|0
112,192,138535,2,0,B|112:264,1,60,8|0
176,256,138996,2,0,B|176:184,1,60
240,192,139458,2,8,B|240:280,2,60
360,192,140381,6,0,B|232:192,1,120,8|0
344,128,141304,2,0,B|208:128,1,120,8|0
104,128,142227,1,8
224,128,142689,1,0
284,128,142919,1,0
343,128,143150,2,0,B|468:128,1,120,8|0
378,212,144073,6,0,B|324:181|294:249|244:198,3,120,8|0|8|0
263,212,145919,1,8
256,192,146035,12,0,147766
160,32,162996,5,8
96,32,163227,2,0,B|24:32,4,60,0|0|0|8|0
120,88,164381,2,0,B|192:120|256:80,1,120,0|8
296,72,165073,2,0,B|328:48|280:8,4,60,0|0|0|8|0
256,120,166227,2,0,B|200:136|208:200|256:208,1,120,0|8
304,232,166920,2,0,B|360:256|352:312|280:328,1,120
192,352,167843,5,0
136,328,168073,2,0,B|136:192,1,120,8|0
72,304,168996,2,0,B|72:160,1,120,8|0
8,280,169920,2,0,B|8:136,2,120,8|0|8
88,192,171304,5,8
152,192,171535,2,0,B|280:192,1,120,8|0
328,192,172227,2,8,B|400:192,1,60
432,80,172920,6,0,B|288:80,1,120
248,80,173612,2,0,B|112:80,1,120,8|0
128,144,174304,2,0,B|256:144,1,120,8|0
56,192,177304,6,0,B|96:120,1,80,2|0
136,120,177766,2,0,B|179:199,1,80,2|0
216,192,178227,2,0,B|261:108,1,80,2|0
296,120,178689,2,0,B|343:199,1,80,2|0
376,192,179150,2,2,B|408:144,5,40
400,120,180073,2,4,B|440:104|496:136|472:200,1,120
480,304,180996,6,0,B|392:304,1,80,2|0
376,272,181458,2,0,B|280:272,1,80,2|0
272,304,181920,2,0,B|184:304,1,80,2|0
168,272,182381,2,0,B|72:272,1,80,2|0
56,304,182843,2,2,B|8:304,5,40
32,272,183766,2,4,B|87:216|32:169,1,120
80,64,184689,6,0,B|160:24,1,80,2|0
192,48,185150,2,0,B|272:88,1,80,2|0
304,64,185612,2,0,B|384:16,1,80,2|0
408,40,186073,2,0,B|488:88,1,80,2|0
456,112,186535,2,2,B|408:152,5,40
392,160,187458,2,4,B|320:192|264:152,1,120
256,192,188381,12,0,190227
197,137,190689,5,8
316,137,191150,1,8
316,257,191612,1,8
196,257,192073,1,8
256,192,192189,12,0,193458
