osu file format v7

[General]
AudioFilename: 04 - .mp3
AudioLeadIn: 0
PreviewTime: 29612
Countdown: 0
SampleSet: Normal
StackLeniency: 0.3
Mode: 0
LetterboxInBreaks: 1

[Editor]
DistanceSpacing: 1
BeatDivisor: 4
GridSize: 8

[Metadata]
Title:Saotome no Yuugi Soshite Ryuugi
Artist:=NeutraL=
Creator:Ex Boy
Version:Easy
Source:Touhou
Tags:Kotsuki Miya SENTIVE

[Difficulty]
HPDrainRate:0
CircleSize:3
OverallDifficulty:3
SliderMultiplier:1
SliderTickRate:1

[Events]
//Background and Video events
0,0,"3409246.png"
//Break Periods
2,59350,65095
2,87042,87249
//Storyboard Layer 0 (Background)
//Storyboard Layer 1 (Fail)
//Storyboard Layer 2 (Pass)
//Storyboard Layer 3 (Foreground)
//Storyboard Sound Samples
//Background Colour Transformations
3,100,255,255,255

[TimingPoints]
1920,461.538461538462,4,1,0,70,1,0
29496,-100,4,2,1,70,0,0
59035,-100,4,1,0,50,0,0
66650,-100,4,2,1,70,0,0
103573,-100,4,2,1,2,0,0

[Colours]
Combo1 : 255,255,255
Combo2 : 251,67,34
Combo3 : 252,217,109
Combo4 : 253,253,53

[HitObjects]
48,48,14843,2,0,B|264:48,1,200
344,48,16227,1,0
392,136,16689,6,0,B|168:136,1,200
96,136,18073,1,0
152,224,18535,6,0,B|376:224,1,200
456,224,19920,1,0
408,312,20381,6,0,B|336:312,1,50
304,312,20843,2,0,B|232:312,1,50
208,312,21304,2,0,B|144:312,1,50
104,312,21766,2,0,B|40:312,1,50
56,264,22227,6,0,B|56:192|104:136|200:136,1,200
280,136,23612,1,0
376,136,24073,6,0,B|344:256|224:272,1,200
144,272,25458,1,0
112,176,25920,6,0,B|216:192|304:128,1,200
352,48,27304,1,0
248,48,27766,6,0,B|176:48,3,50
152,48,28689,2,0,B|88:48,3,50
104,96,29612,5,8
104,296,30535,1,8
304,296,31458,1,8
304,96,32381,1,8
304,96,32843,1,0
200,96,33304,6,0,B|208:176|272:184,1,100,8|0
344,200,34227,2,0,B|347:268|280:280,1,100,8|0
200,296,35150,2,0,B|128:304,6,50,8|0|0|0|8|8|8
136,216,36996,5,8
232,72,37920,1,8
376,168,38843,1,8
280,312,39766,1,8
280,312,40227,1,0
384,312,40689,6,8,C|392:288|384:256|384:256|392:232|384:208|392:184|384:160|392:136|384:112,2,200
288,328,42996,1,2
200,280,43458,1,2
168,184,43920,1,2
168,88,44381,5,8
88,272,45304,1,8
272,344,46227,1,8
328,256,46689,2,2,B|392:256,2,50
264,176,47612,1,8
168,176,48073,6,0,B|56:176,1,100,8|0
64,72,48996,2,0,B|184:72,1,100,8|0
264,72,49920,2,0,B|320:72,6,50,8|0|0|0|8|8|8
264,176,51766,6,0,B|296:152|352:160|368:192,1,100,8|0
360,280,52689,2,0,B|328:304|272:296|256:264,1,100,8|0
264,176,53612,1,8
360,176,54073,2,0,B|424:176,2,50,0|0|8
264,176,54996,1,0
256,80,55458,6,8,B|208:80|136:128|160:208|192:240,3,200
180,226,58689,1,0
180,226,59150,1,4
256,192,66535,5,4
424,304,67458,5,8
256,192,68381,1,8
88,304,69304,1,8
256,192,70227,2,0,B|144:192,3,100,8|0|8|0
104,192,71843,2,0,B|48:192,1,50,0|8
56,96,72535,2,0,B|120:96,1,50,8|0
208,96,73227,1,8
360,96,73920,5,8
184,192,74843,6,8,B|256:240|288:192|336:152|384:200,1,200
440,264,76227,1,0
360,328,76689,2,0,B|304:352|248:320,1,100,8|0
192,256,77612,2,0,B|168:200|104:192,1,100,8|0
80,160,78304,2,2,B|64:104|111:56|168:64,1,150,2|10
264,64,79458,2,8,B|368:64,4,100
264,168,81766,6,0,B|264:232,1,50,8|2
408,168,82689,2,0,B|408:224,1,50,8|2
408,272,83150,2,0,B|352:312|304:264,1,100,8|0
280,240,83843,2,2,B|248:200|184:192|136:216,1,150,2|10
120,312,84996,2,8,B|152:368|216:344,4,100
72,64,88689,6,2,B|200:64|352:80|408:216|456:352,1,500
344,328,91458,2,0,B|240:328,1,100,4|0
144,328,92381,6,2,B|120:216|136:136|304:32|432:168|456:248,1,500
352,232,95150,2,0,B|240:232,1,100,4|0
152,232,96073,6,2,B|192:304|384:352|448:200|384:64|264:40,1,500
168,40,98843,2,0,B|64:40,1,100,4|0
136,112,99766,6,2,B|480:344,1,400,2|10
368,336,102073,1,8
264,336,102535,1,8
192,272,102996,1,8
256,192,103458,1,8
256,192,103573,12,0,105304
