osu file format v12

[General]
AudioFilename: Plus-Fiesta.mp3
AudioLeadIn: 1996
PreviewTime: 48894
Countdown: 0
SampleSet: Normal
StackLeniency: 0.7
Mode: 0
LetterboxInBreaks: 0
WidescreenStoryboard: 0

[Editor]
DistanceSpacing: 1
BeatDivisor: 4
GridSize: 4
TimelineZoom: 1

[Metadata]
Title:Fiesta
TitleUnicode:Fiesta
Artist:+Plus
ArtistUnicode:+Plus
Creator:wmtokok
Version:Normal
Source:Fairy Tail
Tags:opening 6 Hanjamon TV Size
BeatmapID:226321
BeatmapSetID:81557

[Difficulty]
HPDrainRate:3
CircleSize:3
OverallDifficulty:3
ApproachRate:4
SliderMultiplier:1.2
SliderTickRate:2

[Events]
//Background and Video events
0,0,"Fairy tai.jpg",0,0
Video,-340,"Fairy tai op6.avi"
//Break Periods
//Storyboard Layer 0 (Background)
//Storyboard Layer 1 (Fail)
//Storyboard Layer 2 (Pass)
//Storyboard Layer 3 (Foreground)
//Storyboard Sound Samples
//Background Colour Transformations
3,100,163,162,255

[TimingPoints]
252,428.571428571429,4,1,1,60,1,0
1966,-100,4,1,1,50,0,0
3680,-100,4,1,1,60,0,0
13966,-100,4,1,1,70,0,0
16323,-100,4,2,1,55,0,0
31109,-100,4,2,1,60,0,0
34109,-100,4,2,1,45,0,0
37966,-100,4,2,1,60,0,0
41609,-100,4,2,1,60,0,0
49966,-100,4,2,1,65,0,1
55966,-100,4,2,1,60,0,1
62287,-100,4,2,1,55,0,0
63680,-100,4,2,1,60,0,1
79537,-100,4,1,1,50,0,0

[Colours]
Combo1 : 254,251,120
Combo2 : 148,254,209
Combo3 : 163,142,255
Combo4 : 255,131,117
SliderBorder : 255,255,255

[HitObjects]
28,64,252,6,0,L|172:64,1,120,4|8,0:0|0:0,0:0:0:0:
204,172,1110,2,0,L|348:172,1,120,4|8,0:0|0:0,0:0:0:0:
376,280,1966,2,4,L|508:280,2,120,4|4|12,0:0|0:0|0:0,0:0:0:0:
136,292,3681,5,4,0:0:0:0:
76,188,4110,1,8,0:0:0:0:
136,84,4538,1,0,0:0:0:0:
240,148,4967,2,0,L|240:208,2,60,8|0|0,0:0|0:0|0:0,0:0:0:0:
340,84,5824,1,8,0:0:0:0:
396,188,6252,1,0,0:0:0:0:
336,292,6681,1,8,0:0:0:0:
216,304,7110,6,0,P|180:348|108:368,1,120,0|8,0:0|0:0,0:0:0:0:
116,248,7967,1,0,0:0:0:0:
220,184,8395,2,0,L|360:184,1,120,8|0,0:0|0:0,0:0:0:0:
448,132,9252,2,0,P|467:78|448:16,2,120,8|0|8,0:0|0:0|0:0,0:0:0:0:
340,76,10538,6,0,L|192:76,2,120,4|8|0,0:0|0:0|0:0,0:0:0:0:
392,184,11824,1,8,0:0:0:0:
408,304,12252,2,0,L|288:304,2,120,4|8|0,0:0|0:0|0:0,0:0:0:0:
476,204,13538,1,8,0:0:0:0:
404,108,13967,5,4,0:0:0:0:
292,68,14395,1,8,0:0:0:0:
236,172,14824,1,4,0:0:0:0:
228,292,15252,1,8,0:0:0:0:
336,344,15681,6,0,L|448:296,1,120,2|2,0:0|0:0,0:0:0:0:
512,196,16538,1,2,0:0:0:0:
432,108,16967,1,2,0:0:0:0:
320,68,17395,6,0,L|196:68,1,120,4|8,0:0|0:0,0:0:0:0:
140,68,18038,1,2,0:0:0:0:
76,172,18467,1,2,0:0:0:0:
76,172,18681,2,0,P|52:240|64:284,1,120,8|0,0:0|0:0,0:0:0:0:
184,284,19538,2,0,P|196:240|172:172,1,120,8|0,0:0|0:0,0:0:0:0:
176,52,20395,6,0,P|236:40|296:56,2,120,8|0|8,0:0|0:0|0:0,0:0:0:0:
228,160,21681,1,0,0:0:0:0:
272,272,22110,2,0,L|140:272|140:272,1,120,8|0,0:0|0:0,0:0:0:0:
92,272,22753,6,4,L|92:360,2,60,0|8|4,0:0|0:0|0:0,0:0:0:0:
108,88,23824,1,8,0:0:0:0:
228,76,24253,6,0,P|292:80|328:140,1,120,4|8,0:0|0:0,0:0:0:0:
268,220,25110,2,0,P|328:244|392:208,1,120,0|8,0:0|0:0,0:0:0:0:
324,120,25967,2,0,P|364:64|420:64,2,120,0|8|0,0:0|0:0|0:0,0:0:0:0:
244,208,27253,1,8,0:0:0:0:
140,268,27681,6,0,P|216:320|304:308,2,180,0|0|8,0:0|0:0|0:0,0:0:0:0:
176,152,29395,2,0,P|204:100|276:84,1,120,0|8,0:0|0:0,0:0:0:0:
380,96,30253,1,0,0:0:0:0:
380,96,30681,1,8,0:0:0:0:
496,132,31110,6,0,B|428:184|428:184|436:232|436:232|332:300,1,240,4|8,0:0|0:0,0:0:0:0:
244,348,32395,1,2,0:0:0:0:
148,276,32824,2,0,B|59:218|59:218|67:170|67:170|0:118,1,240,4|8,0:0|0:0,0:0:0:0:
80,28,34110,1,2,0:0:0:0:
200,44,34538,6,0,P|264:100|268:152,1,120,4|8,0:0|0:0,0:0:0:0:
196,224,35395,1,0,0:0:0:0:
92,160,35824,1,8,0:0:0:0:
208,136,36253,2,0,P|272:172|288:224,2,120,0|8|0,0:0|0:0|0:0,0:0:0:0:
88,140,37538,6,0,P|60:120|44:88,2,60,8|0|4,0:0|0:0|0:0,0:0:0:0:
88,260,38395,1,8,0:0:0:0:
208,260,38824,1,0,0:0:0:0:
208,140,39253,2,0,L|208:16,2,120,8|4|8,0:0|0:0|0:0,0:0:0:0:
92,184,40538,6,0,L|32:184,2,60,2|0|8,0:0|0:0|0:0,0:0:0:0:
96,64,41395,1,4,0:0:0:0:
216,56,41824,2,2,P|276:48|344:64,2,120,8|2|8,0:0|0:0|0:0,0:0:0:0:
147,150,43110,1,4,0:0:0:0:
256,200,43538,2,0,P|316:208|380:192,1,120,8|0,0:0|0:0,0:0:0:0:
408,308,44395,6,0,L|468:272,2,60,8|2|4,0:0|0:0|0:0,0:0:0:0:
288,312,45253,1,8,0:0:0:0:
168,312,45681,1,4,0:0:0:0:
116,204,46110,1,8,0:0:0:0:
180,104,46538,2,0,L|224:60,2,60,4|0|8,0:0|0:0|0:0,0:0:0:0:
256,192,47395,12,2,49109,0:0:0:0:
156,276,49967,6,0,L|284:276,1,120,4|8,0:0|0:0,0:0:0:0:
392,240,50824,2,0,L|392:152,2,60,0|2|8,0:0|0:0|0:0,0:0:0:0:
276,208,51681,2,0,P|200:204|156:164,1,120,0|8,0:0|0:0,0:0:0:0:
128,64,52538,1,2,0:0:0:0:
248,88,52967,6,0,L|380:88,2,120,8|2|8,0:0|0:0|0:0,0:0:0:0:
128,88,54252,2,2,L|128:164,2,60,2|2|8,0:0|0:0|0:0,0:0:0:0:
248,88,55110,2,0,P|312:104|356:160,2,120,0|8|0,0:0|0:0|0:0,0:0:0:0:
248,208,56395,1,8,0:0:0:0:
176,304,56824,6,0,P|88:304|48:280,2,120,4|8|0,0:0|0:0|0:0,0:0:0:0:
132,192,58110,1,8,0:0:0:0:
196,92,58538,2,0,P|252:72|328:104,1,120,4|8,0:0|0:0,0:0:0:0:
412,148,59395,2,0,P|452:144|492:164,2,60,4|0|8,0:0|0:0|0:0,0:0:0:0:
352,252,60252,5,4,0:0:0:0:
236,280,60681,2,0,P|128:344|44:276,1,240,8|8,0:0|0:0,0:0:0:0:
52,164,61967,2,2,L|52:40,1,120,2|8,0:0|0:0,0:0:0:0:
172,64,62824,6,0,P|232:40|296:52,2,120,4|8|4,0:0|0:0|0:0,0:0:0:0:
240,156,64110,1,8,0:0:0:0:
300,260,64538,2,0,P|244:280|180:256,2,120,0|8|0,0:0|0:0|0:0,0:0:0:0:
412,304,65824,6,0,L|448:256,1,60,8|2,0:0|0:0,0:0:0:0:
500,148,66467,2,0,L|452:88,1,60,8|10,0:0|0:0,0:0:0:0:
368,176,67110,5,2,0:0:0:0:
316,68,67538,1,8,0:0:0:0:
260,176,67967,1,0,0:0:0:0:
212,68,68395,1,8,0:0:0:0:
92,64,68824,2,8,P|32:96|12:152,2,120
128,180,70110,5,8,0:0:0:0:
128,180,70538,2,0,B|160:200|160:200|172:228|172:228|248:248,1,120,4|8,0:0|0:0,0:0:0:0:
324,176,71395,2,0,P|372:192|384:200,2,60,0|0|8,0:0|0:0|0:0,0:0:0:0:
280,80,72252,6,8,P|140:48|44:100,1,240,4|0,0:0|0:0,0:0:0:0:
120,192,73538,1,8,0:0:0:0:
52,292,73966,2,8,P|192:324|288:272,1,240,4|0,0:0|0:0,0:0:0:0:
392,316,75252,1,8,0:0:0:0:
468,224,75680,2,0,P|436:148|452:104,1,120,4|8,0:0|0:0,0:0:0:0:
344,48,76538,2,8,L|248:48,2,60,2|0|8,0:0|0:0|0:0,0:0:0:0:
344,168,77395,6,0,P|364:212|352:284,1,120,4|8,0:0|0:0,0:0:0:0:
240,240,78253,2,0,P|220:304|232:364,2,120,4|8|4,0:0|0:0|0:0,0:0:0:0:
132,296,79538,1,8,0:0:0:0:
68,128,80181,6,0,L|40:200,2,60,0|0|0,0:0|0:0|0:0,0:0:0:0:
116,88,80824,2,0,P|240:56|312:148,1,240,4|0,0:0|0:0,0:0:0:0:
196,176,82110,5,8,0:0:0:0:
312,212,82538,2,0,L|432:236,2,120,0|8|0,0:0|0:0|0:0,0:0:0:0:
236,308,83824,1,2,0:0:0:0:
128,260,84252,5,4,0:0:0:0:
256,192,84467,12,4,87467,0:0:0:0:
