osu file format v12

[General]
AudioFilename: Plus-Fiesta.mp3
AudioLeadIn: 1996
PreviewTime: 48894
Countdown: 0
SampleSet: Normal
StackLeniency: 0.7
Mode: 0
LetterboxInBreaks: 0
WidescreenStoryboard: 0

[Editor]
DistanceSpacing: 1
BeatDivisor: 4
GridSize: 4
TimelineZoom: 1

[Metadata]
Title:Fiesta
TitleUnicode:Fiesta
Artist:+Plus
ArtistUnicode:+Plus
Creator:wmtokok
Version:Hard
Source:Fairy Tail
Tags:opening 6 Hanjamon TV Size
BeatmapID:226319
BeatmapSetID:81557

[Difficulty]
HPDrainRate:6
CircleSize:4
OverallDifficulty:6
ApproachRate:7
SliderMultiplier:1.6
SliderTickRate:2

[Events]
//Background and Video events
0,0,"Fairy tai.jpg",0,0
Video,-340,"Fairy tai op6.avi"
//Break Periods
//Storyboard Layer 0 (Background)
//Storyboard Layer 1 (Fail)
//Storyboard Layer 2 (Pass)
//Storyboard Layer 3 (Foreground)
//Storyboard Sound Samples
//Background Colour Transformations
3,100,163,162,255

[TimingPoints]
252,428.571428571429,4,1,1,60,1,0
5394,-100,4,1,1,50,0,0
8823,-100,4,1,1,55,0,0
13966,-100,4,1,1,65,0,0
16323,-100,4,2,1,60,0,0
25644,-100,4,1,1,40,0,0
25859,-100,4,2,1,60,0,0
27359,-100,4,1,1,30,0,0
27573,-100,4,2,1,60,0,0
29073,-100,4,1,1,30,0,0
29287,-100,4,2,1,60,0,0
30787,-100,4,1,1,40,0,0
31002,-100,4,2,1,60,0,0
32502,-100,4,1,1,40,0,0
32716,-100,4,2,1,60,0,0
34216,-100,4,1,1,40,0,0
34430,-100,4,2,1,60,0,0
35930,-100,4,1,1,30,0,0
36144,-100,4,2,1,60,0,0
46216,-100,4,1,1,40,0,0
46430,-100,4,2,1,60,0,0
49644,-100,4,1,1,30,0,0
49966,-100,4,2,1,65,0,1
51359,-100,4,1,1,40,0,1
51573,-100,4,2,1,65,0,1
53073,-100,4,1,1,40,0,1
53287,-100,4,2,1,65,0,1
54787,-100,4,1,1,40,0,1
55002,-100,4,2,1,65,0,1
56502,-100,4,1,1,40,0,1
56716,-100,4,2,1,65,0,1
58216,-100,4,1,1,40,0,1
58430,-100,4,2,1,65,0,1
59930,-100,4,1,1,40,0,1
60144,-100,4,2,1,65,0,1
61216,-100,4,1,1,55,0,1
61430,-100,4,2,1,65,0,1
62287,-100,4,2,1,55,0,0
63680,-100,4,2,1,60,0,1
70216,-100,4,1,1,40,0,1
70430,-100,4,2,1,65,0,1
72252,-100,4,2,1,65,0,1
73644,-100,4,1,1,40,0,1
73859,-100,4,2,1,65,0,1
75359,-100,4,1,1,50,0,1
75573,-100,4,2,1,65,0,1
79537,-100,4,1,1,50,0,0

[Colours]
Combo1 : 254,251,120
Combo2 : 148,254,209
Combo3 : 163,142,255
Combo4 : 255,131,117
SliderBorder : 255,255,255

[HitObjects]
160,56,252,6,0,P|236:92|264:92,1,106.666666666667,4|0,0:0|0:0,0:0:0:0:
312,96,680,1,8,0:0:0:0:
476,268,1109,2,8,P|400:304|372:304,1,106.666666666667,4|0,0:0|0:0,0:0:0:0:
324,304,1537,1,8,0:0:0:0:
104,200,1966,2,0,L|48:200,6,53.3333333333333,4|0|0|4|0|0|12,0:0|0:0|0:0|0:0|0:0|0:0|0:0,0:0:0:0:
292,336,3252,1,0,0:0:0:0:
458,172,3680,5,4,0:0:0:0:
337,123,3894,1,0,0:0:0:0:
453,93,4109,1,8,0:0:0:0:
381,188,4323,1,0,0:0:0:0:
384,64,4537,2,0,P|320:24|244:64,1,160,0|8,0:0|0:0,0:0:0:0:
185,105,5180,5,0,0:0:0:0:
129,162,5394,2,0,P|89:226|129:302,1,160,0|8,0:0|0:0,0:0:0:0:
188,228,6037,1,0,0:0:0:0:
188,228,6466,1,0,0:0:0:0:
212,312,6680,2,0,L|297:333,1,80,8|0,0:0|0:0,0:0:0:0:
292,204,7109,6,0,P|276:160|224:140,2,80,0|0|8,0:0|0:0|0:0,0:0:0:0:
400,232,7752,1,0,0:0:0:0:
400,232,7966,1,0,0:0:0:0:
380,132,8180,1,0,0:0:0:0:
380,132,8394,1,8,0:0:0:0:
288,64,8609,1,0,0:0:0:0:
288,64,8823,6,0,L|204:64,2,80,0|0|8,0:0|0:0|0:0,0:0:0:0:
92,144,9680,1,0,0:0:0:0:
160,340,10109,1,8,0:0:0:0:
360,296,10537,5,4,0:0:0:0:
360,296,10752,2,0,L|460:296,2,80,0|8|0,0:0|0:0|0:0,0:0:0:0:
232,72,11609,1,0,0:0:0:0:
356,108,11823,1,8,0:0:0:0:
392,88,11930,1,0,0:0:0:0:
428,68,12037,1,0,0:0:0:0:
428,200,12252,5,4,0:0:0:0:
428,200,12466,2,0,L|331:200,2,80,0|8|0,0:0|0:0|0:0,0:0:0:0:
208,336,13323,1,0,0:0:0:0:
180,208,13537,1,8,0:0:0:0:
156,176,13644,1,0,0:0:0:0:
128,144,13752,1,0,0:0:0:0:
40,64,13966,6,0,P|20:104|32:204,2,120,4|0|0,0:0|0:0|0:0,0:0:0:0:
128,144,14823,2,0,P|200:136|244:176,2,120,4|0|0,0:0|0:0|0:0,0:0:0:0:
172,212,15680,2,0,L|64:264,2,120,2|2|2,0:0|0:0|0:0,0:0:0:0:
336,236,16537,6,0,P|340:184|320:152,1,80
252,128,16966,2,0,P|239:151|243:203,1,80
236,284,17394,2,0,P|176:324|64:320,1,160,4|8,0:0|0:0,0:0:0:0:
64,252,18037,2,0,P|48:148|84:76,1,160
132,52,18680,1,8,0:0:0:0:
208,80,18894,2,0,P|229:156|210:232,1,160
340,296,19537,2,0,P|396:312|444:300,1,80,8|0,0:0|0:0,0:0:0:0:
264,104,20180,5,2,0:0:0:0:
264,104,20394,1,4,0:0:0:0:
328,152,20609,5,0,0:0:0:0:
344,164,20716,1,0,0:0:0:0:
360,176,20824,1,2,0:0:0:0:
428,216,21037,2,0,L|472:168,1,40,0|0,0:0|0:0,0:0:0:0:
392,260,21359,2,0,L|348:308,1,40,0|0,0:0|0:0,0:0:0:0:
292,256,21680,5,0,0:0:0:0:
216,232,21894,1,0,0:0:0:0:
232,312,22109,2,0,P|184:308|152:276,2,80,8|0|4,0:0|0:0|0:0,0:0:0:0:
192,148,22752,2,0,P|156:164|132:200,1,80,0|8,0:0|0:0,0:0:0:0:
220,80,23180,1,4,0:0:0:0:
380,152,23609,5,2,0:0:0:0:
400,56,23823,1,8,0:0:0:0:
496,64,24037,1,2,0:0:0:0:
472,160,24252,2,8,P|492:248|476:320,1,160,4|8,0:0|0:0,0:0:0:0:
388,264,24894,1,2,0:0:0:0:
388,264,25323,5,2,0:0:0:0:
292,228,25537,1,8,0:0:0:0:
376,164,25752,1,8,0:0:0:0:
260,88,25966,2,8,P|176:40|80:40,1,160,0|2,0:0|0:0,0:0:0:0:
84,108,26609,2,0,P|48:132|32:164,1,80,2|0,0:0|0:0,0:0:0:0:
116,192,27037,6,0,L|116:236,2,40,0|0|8,0:0|0:0|0:0,0:0:0:0:
196,196,27466,1,8,0:0:0:0:
196,196,27680,1,2,0:0:0:0:
344,136,28109,2,0,P|396:148|420:196,2,80,8|2|0,0:0|0:0|0:0,0:0:0:0:
328,252,28752,1,0,0:0:0:0:
240,112,28966,1,8,0:0:0:0:
120,252,29180,1,8,0:0:0:0:
120,252,29394,6,0,L|284:180,1,160,2|8,0:0|0:0,0:0:0:0:
384,232,30037,2,0,L|440:164,1,80,0|2,0:0|0:0,0:0:0:0:
396,96,30466,1,0,0:0:0:0:
324,64,30680,1,8,0:0:0:0:
252,32,30894,1,8,0:0:0:0:
172,28,31109,6,4,P|36:144|64:268,1,320,4|2,0:0|0:0,0:0:0:0:
232,264,32180,2,2,L|134:264,1,80,2|8,0:0|0:0,0:0:0:0:
112,184,32609,1,8,0:0:0:0:
124,100,32823,2,0,P|208:32|416:32,1,320,4|2,0:0|0:0,0:0:0:0:
388,108,33894,6,0,L|304:132,2,80,0|8|8,0:0|0:0|0:0,0:0:0:0:
432,176,34537,2,0,P|460:252|444:336,1,160,4|8,0:0|0:0,0:0:0:0:
344,316,35180,1,0,0:0:0:0:
240,304,35394,2,8,P|164:284|100:224,1,160,0|8,0:0|0:0,0:0:0:0:
132,97,36037,6,0,P|137:136|156:172,1,80,8|2,0:0|0:0,0:0:0:0:
208,68,36466,1,0,0:0:0:0:
56,168,36680,2,0,P|28:212|-20:232,1,80,8|0,0:0|0:0,0:0:0:0:
132,96,37109,1,2,0:0:0:0:
300,40,37537,6,0,L|392:100,1,80,2|2,0:0|0:0,0:0:0:0:
404,156,37966,1,4,0:0:0:0:
348,224,38180,2,0,L|308:268,1,40
200,224,38502,2,0,L|160:264,1,40
76,88,39037,6,0,L|152:40,2,80,0|8|4,0:0|0:0|0:0,0:0:0:0:
112,176,39680,1,4,0:0:0:0:
172,244,39894,2,0,L|208:216,1,40
312,276,40216,2,0,L|348:240,1,40
196,56,40752,5,0,0:0:0:0:
196,56,40966,1,8,0:0:0:0:
264,100,41180,1,4,0:0:0:0:
264,100,41394,5,4,0:0:0:0:
348,100,41609,2,0,L|396:72,2,40,0|0|8,0:0|0:0|0:0,0:0:0:0:
348,188,42037,1,0,0:0:0:0:
280,256,42252,2,0,P|260:216|260:176,1,80
328,316,42680,2,0,P|288:336|240:336,1,80,8|4,0:0|0:0,0:0:0:0:
136,296,43109,5,4,0:0:0:0:
76,244,43323,2,0,L|32:244,2,40,0|0|8,0:0|0:0|0:0,0:0:0:0:
144,180,43752,2,0,P|104:156|56:156,1,80
208,244,44180,2,0,P|232:204|232:156,1,80,0|8,0:0|0:0,0:0:0:0:
156,76,44609,5,8,0:0:0:0:
276,64,44823,2,0,P|372:48|432:76,1,160,4|8,0:0|0:0,0:0:0:0:
432,192,45466,1,8,0:0:0:0:
432,312,45680,2,0,P|336:328|281:303,1,160,4|8,0:0|0:0,0:0:0:0:
232,192,46323,1,8,0:0:0:0:
256,192,46537,12,8,48252,0:0:0:0:
208,244,48680,5,8,0:0:0:0:
56,204,49109,2,8,P|120:96|164:96,1,160,8|8,0:0|0:0,0:0:0:0:
160,188,49751,1,8,0:0:0:0:
328,196,49966,6,0,P|396:232|396:292,1,120,4|0,0:0|0:0,0:0:0:0:
402,268,50394,1,8,0:0:0:0:
260,160,50609,2,0,P|288:128|336:124,2,80
308,288,51252,1,8,0:0:0:0:
260,160,51466,1,8,0:0:0:0:
192,72,51680,6,0,P|116:76|76:160,1,160,2|8,0:0|0:0,0:0:0:0:
176,168,52323,1,0,0:0:0:0:
224,252,52537,2,0,P|192:272|136:260,2,80,0|0|8,0:0|0:0|0:0,0:0:0:0:
56,268,53180,1,8,0:0:0:0:
56,268,53394,6,0,L|56:356,2,80,2|0|8,0:0|0:0|0:0,0:0:0:0:
168,312,54037,2,0,L|241:344,1,80
276,264,54466,1,0,0:0:0:0:
384,312,54680,2,0,L|311:344,1,80,8|8,0:0|0:0,0:0:0:0:
344,216,55109,2,0,P|440:168|456:112,2,160,0|8|2,0:0|0:0|0:0,0:0:0:0:
368,128,56180,6,4,L|368:32,1,80,2|8,0:0|0:0,0:0:0:0:
292,20,56609,1,8,0:0:0:0:
212,32,56823,2,8,P|128:48|72:128,1,160,4|8,0:0|0:0,0:0:0:0:
80,100,57466,1,0,0:0:0:0:
308,192,57894,1,2,0:0:0:0:
236,136,58109,2,0,P|196:148|164:200,1,80,8|8,0:0|0:0,0:0:0:0:
96,304,58537,5,4,0:0:0:0:
276,304,58859,1,2,0:0:0:0:
148,172,59180,2,0,P|208:112|308:104,1,160,4|0,0:0|0:0,0:0:0:0:
344,52,59823,1,8,0:0:0:0:
424,68,60037,2,0,P|440:92|448:148,1,80,8|4,0:0|0:0,0:0:0:0:
324,248,60466,6,0,P|320:204|336:168,1,80,0|8,0:0|0:0,0:0:0:0:
296,340,60894,1,0,0:0:0:0:
404,220,61109,1,0,0:0:0:0:
216,216,61323,2,0,P|176:204|124:228,2,80,8|8|0,0:0|0:0|0:0,0:0:0:0:
56,208,61966,2,2,P|88:152|152:132,1,120,2|8,0:0|0:0,0:0:0:0:
137,132,62394,1,8,0:0:0:0:
228,132,62609,5,12,0:0:0:0:
320,136,62823,6,0,L|376:136|488:136,1,160,4|8,0:0|0:0,0:0:0:0:
320,136,63466,1,0,0:0:0:0:
216,172,63680,2,0,P|176:180|136:216,2,80,4|0|8,0:0|0:0|0:0,0:0:0:0:
216,268,64323,5,0,0:0:0:0:
88,92,64537,2,0,P|128:92|172:132,1,80
216,268,64966,1,8,0:0:0:0:
140,192,65180,1,0,0:0:0:0:
296,192,65394,5,0,0:0:0:0:
296,192,65823,1,8,0:0:0:0:
424,256,66037,1,2,0:0:0:0:
424,256,66251,2,2,P|460:200|408:128,1,160,2|8,0:0|0:0,0:0:0:0:
348,84,66894,1,0,0:0:0:0:
276,48,67109,6,8,P|200:24|116:52,2,160,2|8|2,0:0|0:0|0:0,0:0:0:0:
348,84,68180,1,0,0:0:0:0:
388,160,68394,1,8,0:0:0:0:
348,84,68609,1,0,0:0:0:0:
388,160,68823,6,8,P|332:196|232:196,1,160,0|8,0:0|0:0,0:0:0:0:
124,308,69680,1,4,0:0:0:0:
152,144,70109,5,8,0:0:0:0:
68,184,70323,1,8,0:0:0:0:
68,184,70537,2,8,P|88:84|144:52,1,160,4|8,0:0|0:0,0:0:0:0:
206,49,71180,1,8,0:0:0:0:
277,87,71394,2,8,L|380:117,1,80,2|8,0:0|0:0,0:0:0:0:
388,232,71823,1,8,0:0:0:0:
388,232,72252,6,0,P|464:296|488:356,2,160,4|8|2,0:0|0:0|0:0,0:0:0:0:
324,184,73323,1,2,0:0:0:0:
276,120,73537,2,2,L|168:84,1,80,8|8,0:0|0:0,0:0:0:0:
124,68,73966,6,0,P|28:168|84:328,1,320,4|0,0:0|0:0,0:0:0:0:
160,312,75037,1,0,0:0:0:0:
80,324,75251,1,8,0:0:0:0:
160,312,75466,1,8,0:0:0:0:
240,316,75680,2,8,P|320:324|360:308,2,120,2|2|2,0:0|0:0|0:0,0:0:0:0:
240,76,76752,5,2,0:0:0:0:
300,180,76966,1,8,0:0:0:0:
380,272,77180,1,2,0:0:0:0:
452,176,77394,2,0,P|468:104|436:44,1,120,4|8,0:0|0:0,0:0:0:0:
272,40,78037,1,0,0:0:0:0:
192,40,78251,2,4,P|160:112|184:180,1,120,4|8,0:0|0:0,0:0:0:0:
272,212,78894,1,0,0:0:0:0:
252,288,79109,2,0,P|168:308|88:292,1,160,8|8,0:0|0:0,0:0:0:0:
304,48,80180,5,0,0:0:0:0:
224,120,80394,1,8,0:0:0:0:
140,192,80609,1,0,0:0:0:0:
56,264,80823,2,0,P|96:308|292:308,1,240,4|0,0:0|0:0,0:0:0:0:
352,208,81680,2,0,P|320:184|281:180,1,80
440,152,82109,2,0,P|468:184|512:192,1,80
424,72,82537,6,0,P|363:40|268:37,1,160,0|8,0:0|0:0,0:0:0:0:
204,120,83180,1,0,0:0:0:0:
120,48,83394,2,4,P|56:80|36:172,1,160,0|2,0:0|0:0,0:0:0:0:
136,240,84037,1,2,0:0:0:0:
256,192,84251,5,4,0:0:0:0:
256,192,84466,12,4,87466,0:0:0:0:
