osu file format v9

[General]
AudioFilename: Canvas.mp3
AudioLeadIn: 2000
PreviewTime: 51774
Countdown: 0
SampleSet: Normal
StackLeniency: 0.7
Mode: 0
LetterboxInBreaks: 0

[Editor]
DistanceSpacing: 0.8
BeatDivisor: 4
GridSize: 8

[Metadata]
Title:Canvas (TV Size)
Artist:+Plus
Creator:tutuhaha
Version:Normal
Source:Katekyo Hitman REBORN!
Tags:Kiiwa wmfchris

[Difficulty]
HPDrainRate:3
CircleSize:3
OverallDifficulty:3
ApproachRate:5
SliderMultiplier:1.6
SliderTickRate:1

[Events]
//Background and Video events
Video,0,"Canvas.flv"
0,0,"BG.jpg"
//Break Periods
//Storyboard Layer 0 (Background)
//Storyboard Layer 1 (Fail)
//Storyboard Layer 2 (Pass)
//Storyboard Layer 3 (Foreground)
//Storyboard Sound Samples
//Background Colour Transformations
3,100,163,162,255

[TimingPoints]
882,535.714285714286,4,1,1,60,1,0
17489,-100,4,1,1,25,0,0
18024,-100,4,2,2,40,0,0
34632,-100,4,2,1,60,0,0
51774,-100,4,1,1,30,0,0
52310,-100,4,1,1,60,0,1
86060,-100,4,2,2,10,0,0
87667,-100,4,2,2,30,0,0

[Colours]
Combo1 : 187,119,255
Combo2 : 159,253,159
Combo3 : 255,255,128
Combo4 : 164,244,251

[HitObjects]
120,80,882,2,0,B|208:96|240:176,1,160,0|8
112,208,1953,2,0,B|56:272,2,80,0|0|8
208,296,3024,2,0,B|296:304|352:240,1,160,0|8
264,144,4096,2,0,B|319:80|407:88,1,160,0|8
432,136,4899,6,0,B|440:176|480:208,1,80
352,240,5703,1,8
256,152,6239,1,0
152,72,6774,2,0,B|104:80|80:120,1,80,8|0
96,176,7310,6,0,B|184:192|208:288,2,160,0|8|0
80,304,8917,1,8
205,279,9453,6,0,B|293:247|301:151,1,160,0|8
360,136,10256,2,0,B|408:128|456:168,1,80,0|0
368,264,11060,1,8
248,216,11596,6,0,B|219:134|125:126,1,160,0|8
80,168,12399,2,0,B|72:216|32:240,1,80
160,288,13203,1,8
288,288,13739,6,0,B|296:240|336:216,2,80,0|0|8
416,264,14810,2,0,B|464:192|416:112,1,160,0|8
288,112,15881,6,0,B|249:34|156:36,2,160,0|8|0
256,232,17489,1,8
168,320,18024,6,0,B|76:321|37:243,2,160,0|2|0
152,192,19631,1,4
64,96,20167,6,0,B|96:64|144:64,2,80,0|0|2
152,192,21239,1,0
256,120,21774,2,0,B|288:152|336:152,1,80,4|0
360,208,22310,6,0,B|336:288|248:312,2,160,0|2|0
440,104,23917,1,4
328,48,24453,5,0
256,152,24989,1,2
184,48,25524,2,0,B|144:72|136:112,2,80,0|0|4
256,152,26596,5,0
184,256,27132,1,2
184,256,27667,2,0,B|256:296|339:254,1,160,0|4
448,192,28739,5,0
336,128,29274,1,2
216,88,29810,2,0,B|168:88|128:120,1,80,0|0
128,176,30346,2,0,B|80:176|40:144,2,80,4|0|0
128,304,31417,1,2
216,208,31953,6,0,B|232:120|328:88,1,160,0|4
352,144,32757,2,0,B|400:144|432:104,1,80
384,232,33560,6,0,B|360:262|312:262,1,80,2|0
256,296,34096,1,4
256,296,34632,1,8
136,256,35167,5,0
136,128,35703,1,8
256,80,36239,2,0,B|304:88|328:136,2,80,0|0|8
288,208,37310,6,0,B|384:216|408:128,2,160,0|8|0
256,264,38649,2,0,B|272:304|320:320,1,80,0|8
184,312,39453,5,0
136,192,39989,1,8
96,72,40524,2,0,B|136:88|184:88,1,80
240,88,41060,6,0,B|280:72|328:72,2,80,8|0|0
312,192,42132,1,8
384,296,42667,2,0,B|456:248|432:144,1,160,0|8
336,72,43739,6,0,B|248:64|200:144,1,160,0|8
152,256,44810,2,0,B|104:248|80:192,2,80,0|0|8
256,328,45882,5,0
352,240,46417,2,0,B|352:192|392:160,1,80,8|0
424,120,46953,2,0,B|424:72|384:40,2,80,0|0|8
296,136,48024,5,0
168,144,48560,2,0,B|168:192|208:224,1,80,8|0
136,328,49364,2,0,B|136:280|96:248,2,80,0|8|0
200,344,50167,6,0,B|288:336|328:240,1,160,0|8
248,144,51239,2,0,B|288:64|376:56,1,160,0|8
368,184,52310,6,0,B|392:264|480:296,2,160,0|8|0
256,248,53917,1,0
144,200,54453,6,0,B|120:120|32:88,2,160,0|8|0
272,176,56060,2,0,B|312:152|328:88,2,80,8|0|0
344,288,57132,6,0,B|384:320|440:312,1,80,8|0
464,264,57667,2,0,B|424:192|464:104,1,160,0|8
336,112,58739,6,0,B|288:120|256:176,1,80
208,136,59274,2,0,B|160:128|128:72,1,80,8|0
88,120,59810,2,0,B|32:184|48:288,1,160,0|8
176,280,60882,6,0,B|243:225|326:241,1,160,0|8
384,272,61685,2,0,B|432:264|464:224,1,80
360,144,62489,1,8
256,72,63024,6,0,B|280:40|325:35,2,80,0|0|8
192,64,63828,2,0,B|170:92|122:100,1,80
216,192,64632,1,8
176,312,65167,6,0,B|256:344|335:309,1,160,0|8
256,208,66239,1,0
360,128,66774,1,8
256,48,67310,6,0,B|208:56|184:96,1,80
136,128,67846,2,0,B|88:120|64:80,2,80,8|0|0
136,256,68917,5,8
136,128,69453,2,0,B|224:152|240:248,1,160,0|8
280,288,70257,2,0,B|328:272|344:216,1,80
456,192,71060,5,8
432,64,71596,2,0,B|344:88|328:184,1,160,0|8
272,200,72399,2,0,B|224:184|208:128,1,80
168,32,73203,2,0,B|128:48|112:88,2,80,8|0|0
136,160,74274,6,0,B|120:208|72:224,1,80,8|0
96,280,74810,2,0,B|152:344|256:344,1,160,0|8
256,216,75881,2,0,B|312:152|408:144,1,160,0|8
416,88,76685,2,0,B|384:48|328:40,1,80
224,80,77489,6,0,B|176:96|152:144,1,80,8|0
176,192,78024,2,0,B|152:272|72:312,2,160,0|8|0
256,288,79631,1,8
344,192,80167,6,0,B|368:112|448:72,2,160,0|8|0
288,80,81774,2,0,B|256:112|248:160,2,80,8|0|0
160,80,82846,1,8
104,192,83381,6,0,B|120:232|168:248,1,80
216,272,83917,2,0,B|256:240|304:240,1,80,8|0
352,256,84453,2,0,B|448:224|448:128,2,160,0|8|0
256,192,86060,12,4,87667
