osu file format v9

[General]
AudioFilename: Canvas.mp3
AudioLeadIn: 2000
PreviewTime: 51774
Countdown: 0
SampleSet: Soft
StackLeniency: 0.7
Mode: 0
LetterboxInBreaks: 0

[Editor]
DistanceSpacing: 1
BeatDivisor: 4
GridSize: 8

[Metadata]
Title:Canvas (TV Size)
Artist:+Plus
Creator:tutuhaha
Version:Kiiwa
Source:Katekyo Hitman REBORN!
Tags:Kiiwa wmfchris

[Difficulty]
HPDrainRate:7
CircleSize:4
OverallDifficulty:5
ApproachRate:7
SliderMultiplier:1.8
SliderTickRate:1

[Events]
//Background and Video events
0,0,"BG.jpg"
Video,0,"Canvas.flv"
//Break Periods
//Storyboard Layer 0 (Background)
//Storyboard Layer 1 (Fail)
//Storyboard Layer 2 (Pass)
//Storyboard Layer 3 (Foreground)
//Storyboard Sound Samples
//Background Colour Transformations
3,100,163,162,255

[TimingPoints]
882,535.714285714286,4,2,1,50,1,0
1149,-100,4,1,1,40,0,0
18024,-100,4,2,2,60,0,0
34632,-100,4,2,1,60,0,0
50703,-100,4,1,0,15,0,0
50971,-100,4,1,0,20,0,0
51239,-100,4,1,0,30,0,0
51774,-100,4,2,1,50,0,0
52310,-100,4,2,2,50,0,1
52846,-100,4,1,1,40,0,1
60882,-100,4,2,2,50,0,1
61149,-100,4,1,1,40,0,1
69453,-100,4,2,2,50,0,1
69721,-100,4,1,1,40,0,1
78024,-100,4,2,2,50,0,1
78292,-100,4,1,1,40,0,1
84721,-100,4,2,2,50,0,1
86060,-100,4,2,2,50,0,0
87132,-100,4,2,2,25,0,0

[Colours]
Combo1 : 187,119,255
Combo2 : 159,253,159
Combo3 : 255,255,128
Combo4 : 164,244,251

[HitObjects]
96,192,346,6,0,B|104:108|180:112|176:168|136:160,1,135,2|0
145,160,882,5,4
224,200,1149,1,0
296,256,1417,2,0,B|368:304|376:368,1,135,8|0
384,320,1953,2,0,B|440:280|448:224,1,90
464,168,2489,2,0,B|424:176|424:104|472:104|480:144,1,90,8|0
376,120,3024,6,0,B|304:96|280:32|280:32|264:80,1,180,0|8
240,160,3828,1,0
168,208,4096,2,0,B|128:232|96:224,1,45
80,232,4364,2,0,B|32:240|8:208,1,45
0,216,4632,5,8
168,208,4899,1,0
248,352,5167,2,0,B|288:312|384:328|408:376,1,180,0|8
407,374,5971,1,0
336,312,6239,6,0,B|344:264|296:208,1,90
184,152,6774,2,0,B|176:200|224:256,1,90,8|0
311,227,7310,2,0,B|464:200,1,135
480,224,7846,1,8
416,120,8114,5,0
440,80,8248,1,0
320,104,8515,1,0
312,72,8649,1,0
208,128,8917,2,0,B|160:96,3,45,8|0|0|0
128,72,9453,5,8
128,72,9721,1,8
56,128,9989,2,0,B|80:176|40:248|-8:232,1,135
0,206,10524,2,0,B|88:240,1,90
168,264,11060,2,0,B|232:288|240:352|232:376,1,135,8|0
296,344,11596,5,8
296,344,11864,1,8
376,304,12131,2,0,B|416:232|504:240|504:240|520:208,1,180,8|0
504,128,12935,1,0
416,104,13203,2,0,B|360:128|304:80,1,90,8|0
329,98,13739,2,0,B|280:72|280:24,1,90
280,27,14274,1,8
248,112,14542,5,0
192,176,14810,1,0
104,184,15078,1,0
32,128,15346,1,8
48,40,15614,1,0
136,16,15881,6,0,B|216:0|264:96|192:168|80:168|104:48|136:40|192:56|184:112,1,270
171,72,16953,1,0
171,72,17221,1,8
280,312,18024,6,0,B|368:328|432:264,1,135,4|0
432,264,18560,2,0,B|384:240|336:272,1,90
280,312,19096,1,2
200,352,19364,1,0
128,296,19631,1,0
168,216,19899,1,0
256,224,20167,6,0,B|304:200|320:128|280:80,1,135,2|0
344,104,20703,2,0,B|352:200,1,90
408,264,21239,1,2
432,176,21507,1,0
496,112,21774,1,2
384,56,22042,6,0,B|416:88,1,45
416,88,22310,2,0,B|408:32|288:8|256:80,1,180,2|0
200,120,23114,2,0,B|192:176|136:144|184:104,1,90,0|2
266,62,23649,1,0
376,56,23917,1,2
480,104,24185,1,0
512,224,24453,6,0,B|464:208|464:208|416:240,1,90,2|0
392,312,24989,2,0,B|376:352|312:344|344:288,1,90
304,224,25524,2,0,B|264:160|160:216|184:272,1,180,2|0
183,270,26596,6,0,B|168:336|72:296|160:232|176:256,1,135,4|0
216,240,27132,1,0
272,168,27399,2,0,B|296:128|280:64,1,90,0|2
283,80,28203,5,0
320,160,28471,1,0
408,184,28739,2,0,B|456:200|512:176,1,90,2|0
496,181,29274,2,0,B|432:160|360:232|408:304,1,180,2|0
480,320,30078,1,0
324,324,30346,2,0,B|272:320|272:320|248:352,1,90
152,336,30882,2,0,B|272:184,1,180,2|0
263,194,31685,1,0
192,120,31953,6,0,B|224:80|304:96,1,90,2|0
368,168,32489,2,0,B|386:215|332:276,1,90
232,296,33024,2,0,B|181:288|155:211,1,90,2|2
166,239,33560,5,0
350,252,33828,1,0
273,91,34096,1,4
280,48,34632,5,8
288,0,35167,5,2
410,51,35435,2,0,B|392:32|368:48,1,45
368,48,35703,2,0,B|416:104|488:72|488:24,1,135,8|0
504,88,36239,1,2
464,168,36507,1,0
424,248,36774,2,0,B|376:328,1,90,8|0
288,296,37310,5,2
208,256,37578,1,2
120,272,37846,1,8
64,336,38114,1,0
288,296,38382,5,2
200,312,38649,1,0
120,272,38917,1,8
104,184,39185,1,0
136,96,39453,6,0,B|152:56|224:32|264:64,1,135,2|0
208,96,39989,2,0,B|264:72|312:128,1,90,8|0
368,160,40524,1,2
392,248,40792,1,0
352,328,41060,1,8
176,280,41596,6,0,B|144:304|144:304|72:304|72:304|32:336,1,135,2|0
24,352,42132,1,8
72,176,42667,1,0
128,104,42935,1,0
216,88,43203,1,8
304,104,43471,2,0,B|352:112|352:144,1,45
344,168,43739,6,0,B|344:112|384:88,1,90,2|0
488,136,44274,2,0,B|488:192|448:216,1,90,8|0
310,378,44810,2,0,B|368:256,1,135,2|0
232,248,45614,5,0
144,264,45882,1,2
56,288,46149,2,0,B|24:304|8:344,2,45,0|0|8
112,216,46685,1,0
176,7,46953,2,0,B|184:80|144:136,1,135,2|0
296,72,47757,5,0
384,104,48024,1,2
288,224,48560,5,8
384,200,48828,1,2
232,144,49364,5,0
160,200,49632,2,0,B|104:232|104:296,1,90,2|0
72,352,50167,5,8
106,269,50435,1,0
104,176,50703,1,0
72,88,50971,1,0
144,144,51239,2,0,B|192:192|272:184,1,135
347,121,51774,6,2,B|336:160|272:184|232:160,1,135,2|0
184,104,52310,6,0,B|216:136|272:120,1,90,4|0
347,121,52846,1,8
432,88,53114,1,0
384,160,53382,2,0,B|336:192|328:296|384:328,1,180,0|8
373,320,54185,1,0
440,264,54453,6,0,B|472:304|448:360,1,90
304,368,54989,2,0,B|272:328|296:272,1,90,8|0
373,320,55524,2,0,B|336:136,1,180,0|8
320,56,56328,1,0
256,112,56596,6,0,B|184:128|112:96|112:32,1,180,0|8
40,184,57399,1,0
176,112,57667,1,0
32,88,57935,1,0
136,200,58203,1,8
112,41,58471,1,0
136,200,58739,6,0,B|232:200|232:200|256:240,1,135
272,272,59274,1,8
344,216,59542,1,0
376,248,59676,1,0
424,168,59944,1,0
464,176,60078,1,0
456,88,60346,2,0,B|512:80,3,45,8|0|0|0
472,32,60882,5,4
472,32,61149,1,8
384,56,61417,2,0,B|232:96,1,135,8|0
264,48,61953,1,0
168,120,62221,1,0
280,128,62489,1,8
56,264,63024,6,0,B|120:232|192:272|184:344,1,180,0|8
240,272,63828,2,0,B|312:264|336:208,2,90
152,264,64632,1,8
72,224,64899,1,0
56,136,65167,6,0,B|48:88,2,45
176,72,65703,2,0,B|160:120,2,45,8|0|0
288,144,66239,2,0,B|272:104,2,45
392,96,66774,2,0,B|432:16,1,90,8|0
496,104,67310,5,0
496,192,67578,1,0
496,104,67846,5,8
416,216,68114,1,0
496,104,68382,5,0
336,240,68649,2,0,B|208:272,1,90,8|8
216,272,69051,1,0
184,280,69185,1,0
88,296,69453,6,0,B|72:232|0:200|0:200|-8:144,1,180,4|8
80,136,70257,2,0,B|152:136|168:72,1,90
184,64,70658,2,0,B|200:24|288:8|328:40,1,135,0|8
368,96,71328,1,0
432,160,71596,6,0,B|456:288|456:288|504:304,1,180,0|8
416,280,72399,2,0,B|304:240,1,90
211,305,72935,2,0,B|296:336,1,90,0|8
240,216,73471,2,0,B|128:176,1,90
123,273,74006,1,0
123,273,74274,1,8
80,96,74810,6,0,B|152:88|184:16,1,135
216,24,75346,2,0,B|288:40|288:40|296:88,1,90,8|0
312,144,75881,2,0,B|328:240,1,90
344,320,76417,1,8
352,360,76551,1,0
256,296,76819,1,0
232,344,76953,1,0
184,232,77221,1,0
120,256,77355,2,0,B|56:280,4,45
16,288,78024,5,4
16,288,78292,1,8
64,216,78560,2,0,B|136:88,1,135,8|0
88,96,79096,1,0
216,136,79364,1,0
328,64,79631,1,8
450,105,79899,6,0,B|424:120|408:104,1,45
408,104,80167,2,0,B|448:64|512:136|464:184,1,135
464,208,80703,2,0,B|464:272|464:272|480:320,1,90,8|0
504,376,81239,1,0
472,296,81506,1,0
392,352,81774,1,8
368,248,82042,1,0
272,312,82310,2,0,B|224:328|160:272|176:216|200:176,1,180,0|8
160,296,83114,6,0,B|112:288|96:232,1,90,0|8
117,112,83649,2,0,B|147:74|204:88,1,90,0|8
298,167,84185,2,0,B|315:212|274:254,1,90,8|8
256,192,84721,12,4,86596
256,32,87667,5,4
