osu file format v13

[General]
AudioFilename: huebla.mp3
AudioLeadIn: 2000
PreviewTime: 12868
Countdown: 0
SampleSet: Soft
StackLeniency: 0.7
Mode: 0
LetterboxInBreaks: 0
WidescreenStoryboard: 0

[Editor]
Bookmarks: 11654
DistanceSpacing: 1.3
BeatDivisor: 4
GridSize: 4
TimelineZoom: 1

[Metadata]
Title:Dagestanskie Moskvichi
TitleUnicode:Дагестанские Москвичи
Artist:#AVG
ArtistUnicode:#AVG
Creator:Breadhunter
Version:Normal
Source:
Tags:Slow-ru Russian
BeatmapID:489501
BeatmapSetID:207297

[Difficulty]
HPDrainRate:4
CircleSize:3
OverallDifficulty:3
ApproachRate:3.5
SliderMultiplier:1
SliderTickRate:1

[Events]
//Background and Video events
0,0,"112121211121.jpg",0,0
//Break Periods
2,12867,24054
//Storyboard Layer 0 (Background)
//Storyboard Layer 1 (Fail)
//Storyboard Layer 2 (Pass)
//Storyboard Layer 3 (Foreground)
//Storyboard Sound Samples
//Background Colour Transformations
3,100,163,162,255

[TimingPoints]
68,400,4,2,0,70,1,0
12868,-100,4,2,0,70,0,0
25668,-100,4,2,0,70,0,1
25868,-100,4,2,0,70,0,0
38468,-100,4,2,0,70,0,1
38668,-100,4,2,0,70,0,0

[Colours]
Combo1 : 205,7,52
Combo2 : 0,108,0
Combo3 : 0,89,198

[HitObjects]
56,92,68,6,0,P|160:84|200:100,1,150,4|4,0:0|0:3,0:0:0:0:
248,128,868,2,0,P|292:144|344:140,1,100,8|4,0:0|0:3,0:0:0:0:
452,67,1668,2,0,P|473:117|474:162,2,100,2|4|8,2:0|0:3|0:0,0:0:0:0:
345,140,2868,5,0,0:0:0:0:
335,194,3068,1,0,0:0:0:0:
324,248,3268,1,4,0:3:0:0:
204,299,3668,1,0,0:0:0:0:
84,248,4068,6,0,P|68:184|106:109,1,150,8|8,0:0|0:0,0:0:0:0:
156,128,4868,2,0,P|194:74|273:55,1,150
320,83,5668,1,8,0:0:0:0:
443,311,6468,6,0,P|407:347|311:359,1,150,4|4,0:3|0:3,0:0:0:0:
261,338,7268,1,8,0:0:0:0:
160,256,7668,6,0,B|128:212|169:159|136:107,1,150,4|8,0:3|0:0,0:0:0:0:
187,85,8468,2,0,P|233:98|287:98,1,100,12|8,0:3|0:0,0:0:0:0:
339,88,9068,2,0,P|389:87|432:110,1,100,4|4,0:3|0:3,0:0:0:0:
458,158,9668,5,4,0:3:0:0:
330,185,10068,2,0,L|275:197,2,50,8|0|8,0:0|0:0|0:0,0:0:0:0:
416,282,10868,6,0,L|471:293,2,50,4|8|4,0:3|0:0|0:3,0:0:0:0:
366,305,11468,1,8,0:0:0:0:
316,328,11668,6,0,P|258:344|215:338,1,100,4|8,0:3|0:0,0:0:0:0:
164,328,12268,2,0,B|109:317,2,50,4|8|8,0:3|0:0|0:0,0:0:0:0:
428,60,25668,6,0,P|332:76|288:105,1,150,4|4,0:0|0:3,0:0:0:0:
240,129,26468,2,0,P|196:144|139:142,1,100,8|4,0:0|0:3,0:0:0:0:
18,105,27268,2,0,P|11:152|26:200,2,100,2|4|8,2:0|0:3|0:0,0:0:0:0:
142,143,28468,5,4,3:3:0:0:
162,194,28668,1,0,3:0:0:0:
162,249,28868,1,0,3:0:0:0:
292,240,29268,1,0,3:0:0:0:
320,113,29668,6,0,P|358:83|417:78,1,100,8|4,0:0|0:3,0:0:0:0:
450,112,30268,1,8,0:0:0:0:
453,167,30468,2,0,P|431:215|449:309,1,150
478,354,31268,1,8,0:0:0:0:
232,272,32068,6,0,P|183:282|101:233,1,150,4|4,0:3|0:3,0:0:0:0:
70,187,32868,1,8,0:0:0:0:
166,99,33268,6,0,B|206:83|239:90|239:90|286:99|318:83,1,150,4|8,0:3|0:0,0:0:0:0:
367,74,34068,2,0,P|388:125|420:158,1,100,4|8,0:3|0:0,0:0:0:0:
448,204,34668,6,0,P|444:244|412:296,1,100,4|4,0:3|0:3,0:0:0:0:
364,319,35268,1,4,0:3:0:0:
234,324,35668,6,0,L|180:349,2,50,8|0|8,0:0|0:0|0:0,0:0:0:0:
121,259,36468,6,0,L|67:242,2,50,4|8|4,0:3|0:0|0:3,0:0:0:0:
116,129,37268,1,4,0:3:0:0:
240,90,37668,2,0,L|263:134,1,50,8|4,0:0|3:0,0:0:0:0:
289,183,38068,2,0,L|269:229,1,50,8|8,0:0|0:0,0:0:0:0:
246,279,38468,6,0,P|336:328|381:331,1,150,4|4,0:0|0:3,0:0:0:0:
427,300,39268,2,0,P|423:253|437:202,1,100,8|4,0:0|0:3,0:0:0:0:
388,82,40068,2,0,P|343:55|294:59,2,100,2|12|8,2:0|0:3|0:0,0:0:0:0:
315,164,41268,5,0,0:0:0:0:
260,164,41468,1,0,0:0:0:0:
209,185,41668,1,4,0:3:0:0:
235,312,42068,1,0,0:0:0:0:
361,342,42468,6,0,P|392:281|462:238,1,150,8|8,0:0|0:0,0:0:0:0:
508,212,43268,2,0,P|439:203|381:147,1,150
356,101,44068,1,8,0:0:0:0:
97,105,44868,6,0,P|94:155|149:235,1,150,4|4,0:3|0:3,0:0:0:0:
203,240,45668,1,8,0:0:0:0:
289,337,46068,6,0,P|342:328|402:257,1,150,4|8,0:3|0:0,0:0:0:0:
416,204,46868,2,0,P|409:161|376:112,1,100,4|8,0:3|0:0,0:0:0:0:
330,88,47468,2,0,P|276:77|232:93,1,100,4|4,0:3|0:3,0:0:0:0:
189,122,48068,5,4,0:3:0:0:
147,245,48468,2,0,B|131:292,2,50,4|0|8,0:3|0:0|0:0,0:0:0:0:
274,215,49268,2,0,B|321:231,2,50,4|8|4,0:3|0:0|0:3,0:0:0:0:
310,89,50068,5,4,0:3:0:0:
432,44,50468,2,0,L|472:91,1,50,8|4,0:0|0:3,0:0:0:0:
485,133,50868,1,8,0:0:0:0:
480,188,51068,5,8,0:0:0:0:
