osu file format v5

[General]
AudioFilename: mokey_1.mp3
AudioLeadIn: 0
PreviewTime: -1
Countdown: 3
SampleSet: Normal

[Metadata]
Title:***lucky star***
Artist:????
Creator:oli16439
Version:Hard

[Difficulty]
HPDrainRate:3
CircleSize:4
OverallDifficulty:6
SliderMultiplier:1.6
SliderTickRate:4

[Events]
//Background and Video events
//Break Periods
2,26972,30146
2,44600,49307
//Storyboard Layer 0 (Background)
//Storyboard Layer 1 (Failing)
//Storyboard Layer 2 (Passing)
//Storyboard Layer 3 (Foreground)
//Storyboard Sound Samples
//Background Colour Transformations
3,100,163,162,255

[TimingPoints]
11777,400,4,1,0,100

[HitObjects]
128,96,12228,1,0
128,96,12544,1,0
192,96,13492,1,0
192,96,13808,1,0
192,96,14124,5,0
288,96,14756,1,0
288,96,15072,1,0
288,96,15388,1,0
192,128,16020,1,0
256,192,16652,1,0
320,160,16968,5,0
320,96,17600,1,0
288,96,17916,1,0
224,96,18232,1,0
224,160,18864,1,0
320,160,19496,1,0
448,64,20760,5,0
288,64,21076,1,0
128,96,22024,1,0
192,192,22340,1,0
320,96,22972,1,0
320,224,23288,1,0
224,160,23604,1,0
224,160,23920,1,0
224,160,24236,1,0
256,192,24552,12,6,26764
288,192,31188,5,0
192,128,31820,1,0
160,192,32136,1,0
288,128,32452,1,0
320,192,33084,5,0
224,224,33400,1,0
160,160,33716,1,0
160,160,34032,1,0
288,192,34348,1,0
320,224,34664,5,0
352,320,34980,1,0
416,224,35296,1,0
416,128,35928,1,0
256,96,36244,1,4
192,160,36560,5,0
320,224,36876,1,0
384,160,37508,1,0
416,224,37824,1,0
256,320,38140,1,0
160,224,38456,1,4
192,128,39088,5,0
256,192,39404,1,0
320,96,39721,1,0
384,160,40037,1,0
352,256,40669,5,0
192,128,40985,1,0
320,96,41301,1,0
224,224,41933,1,0
64,160,42249,5,0
224,288,42565,1,0
320,256,42881,2,0,B|320:96,1,160
192,128,50781,1,0
192,128,51097,1,0
288,128,51413,5,0
288,224,52045,1,0
384,160,52677,1,0
224,224,52993,1,0
224,128,53625,1,0
320,224,53941,1,0
320,128,54257,5,0
224,192,54889,1,0
128,96,55205,1,0
288,96,55837,1,0
384,224,56469,5,0
192,288,56785,1,0
96,192,57417,1,0
256,96,57733,1,0
352,96,58049,1,0
288,224,58681,5,0
160,160,58997,5,0
160,288,59629,1,0
288,128,59945,1,0
256,224,60577,1,0
128,192,60893,1,0
128,96,61525,5,0
128,96,62157,1,0
224,96,62473,1,0
352,96,62789,1,0
320,224,63421,5,0
224,224,63737,1,0
128,224,64369,5,0
128,128,64685,1,0
256,128,65317,5,0
384,160,65633,1,0
384,256,65949,1,0
256,256,66581,5,0
160,128,66897,1,0
288,96,67530,5,0
416,128,67846,1,0
288,256,68794,5,0
192,256,69110,1,0
160,160,69742,5,0
160,160,70058,1,0
320,128,70690,5,0
416,160,71006,1,0
384,256,71638,5,0
192,288,72270,5,0
160,192,72586,1,0
320,96,73218,2,0,B|320:256,1,160
320,256,73850,5,0
320,256,74482,6,0,B|160:256,1,160
224,256,75114,1,0
192,256,75430,1,0
128,192,75746,1,0
256,160,76378,5,0
352,160,76694,1,0
384,256,77326,1,0
416,96,77642,1,0
256,192,77958,1,0
224,288,78274,5,0
96,128,78906,1,0
288,96,79222,1,0
320,192,79538,5,0
448,128,79854,1,0
352,288,80486,1,0
192,256,80802,1,0
256,192,81750,5,0
288,256,82066,1,0
384,128,82698,5,0
256,128,83330,5,0
192,224,83646,1,0
352,256,83962,1,0
416,256,84278,1,0
256,192,84910,12,0,88386
128,96,88702,5,0
320,96,89018,1,0
416,224,89334,1,0
224,96,89650,1,0
256,160,89966,5,0
320,160,90282,1,0
384,256,90914,1,0
416,128,91230,5,0
256,256,91546,1,0
128,160,92178,1,0
256,96,92494,1,0
192,192,93126,1,0
256,256,93442,5,0
192,192,93758,5,0
384,192,94074,5,0
