osu file format v5

[General]
AudioFilename: this_is_kanavan_remix.mp3
AudioLeadIn: 0
PreviewTime: 29470
Countdown: 1
SampleSet: Normal
StackLeniency: 0.7
Mode: 0
LetterboxInBreaks: 1
EditorBookmarks: 59059

[Metadata]
Title:This Is Canavan Remix
Artist:???
Creator:Pipinlover
Version:Easy
Source:
Tags:

[Difficulty]
HPDrainRate:4
CircleSize:5
OverallDifficulty:6
SliderMultiplier:1.4
SliderTickRate:1

[Events]
//Background and Video events
//Break Periods
//Storyboard Layer 0 (Background)
//Storyboard Layer 1 (Failing)
//Storyboard Layer 2 (Passing)
//Storyboard Layer 3 (Foreground)
//Storyboard Sound Samples
//Background Colour Transformations
3,100,163,162,255

[TimingPoints]
1525,821.917808219178,4,1,1,100,1,0

[HitObjects]
160,64,3168,5,0
320,64,3990,1,0
448,64,4812,1,0
288,64,6456,1,0
192,160,7278,1,0
384,96,8100,1,0
288,96,8922,1,0
192,192,9744,1,0
288,192,10566,1,0
288,96,11388,1,0
384,64,12209,1,0
192,128,13853,1,0
256,224,15497,1,0
352,192,16319,1,0
192,192,18785,1,0
224,224,19607,1,0
224,128,21251,5,0
224,192,22072,1,0
320,192,22894,1,0
224,128,23716,1,0
384,160,24538,1,0
224,192,25360,1,0
320,192,26182,1,0
192,96,27004,1,0
192,160,27826,1,0
320,96,28648,1,0
288,192,29470,1,0
224,96,30292,1,0
320,64,31114,1,0
192,128,32757,1,0
320,128,34401,1,0
128,160,39333,2,0,B|288:96|224:128|224:160,2,140
192,128,44264,1,0
320,96,45086,1,0
224,160,45908,1,0
160,64,46730,1,0
352,96,47552,1,0
224,192,48374,1,0
224,64,49196,1,0
384,96,50018,1,0
384,64,50840,5,0
224,96,51661,1,0
288,192,52483,1,0
352,128,53305,1,0
224,96,54127,1,0
224,160,54949,1,0
352,96,55771,1,0
256,64,56593,1,0
256,96,57415,1,0
352,128,58237,1,0
512,64,59059,1,0
