osu file format v6

[General]
AudioFilename: Bakugan Battle Brawlers - Puchigiri - Infinite Generation.mp3
AudioLeadIn: 0
PreviewTime: -1
Countdown: 1
SampleSet: None
StackLeniency: 0.7
Mode: 0
LetterboxInBreaks: 1

[Editor]
DistanceSpacing: 0.800000011920929
BeatDivisor: 4
GridSize: 32

[Metadata]
Title:Infinite Generation
Artist:???
Creator:VentusStorm
Version:Preays II {Hard}
Source:
Tags:

[Difficulty]
HPDrainRate:6
CircleSize:5
OverallDifficulty:6
SliderMultiplier:1.4
SliderTickRate:1

[Events]
//Background and Video events
//Break Periods
2,33353,33814
2,38218,38679
2,41316,41922
2,93353,94175
2,95425,96157
2,97407,98139
2,107767,108679
2,122882,123184
2,165785,170031
2,224073,224715
2,235335,235706
2,257407,257778
//Storyboard Layer 0 (Background)
//Storyboard Layer 1 (Fail)
//Storyboard Layer 2 (Pass)
//Storyboard Layer 3 (Foreground)
//Storyboard Sound Samples
//Background Colour Transformations
3,100,0,0,255

[TimingPoints]
0,346.820809248555,4,0,0,100,1,0

[Colours]
Combo1 : 128,128,0
Combo2 : 243,21,21
Combo3 : 20,195,227
Combo4 : 32,234,17
Combo5 : 236,236,236

[HitObjects]
128,32,6846,1,0
128,192,7297,1,0
384,224,7927,1,0
384,160,8288,1,0
288,96,8558,1,0
288,96,8738,1,0
192,96,9279,1,0
192,160,9639,1,0
256,160,10630,1,0
256,64,11351,5,0
160,64,11891,1,0
160,160,12252,1,0
288,160,12612,1,0
320,160,12792,1,0
160,64,13963,5,0
160,128,14144,1,0
320,96,14954,1,0
320,64,15315,1,0
416,64,15495,1,0
384,160,16396,5,0
160,160,16666,1,0
160,160,16846,1,0
224,64,17747,5,0
352,64,18018,1,0
384,64,18198,1,0
320,192,19099,5,0
224,192,19369,1,0
192,192,19459,1,0
160,64,20540,5,0
256,64,20810,1,0
288,64,20990,1,0
384,96,21981,5,0
384,128,22162,1,0
256,192,22792,1,0
160,192,23153,1,0
128,96,23423,1,0
224,64,23783,1,0
384,64,24414,1,0
384,160,24774,1,0
384,160,24954,1,0
384,160,25135,1,0
192,128,25765,5,0
192,192,26396,1,0
352,192,27117,1,0
352,128,27477,1,0
352,128,27747,1,0
160,128,28558,5,0
160,192,29189,1,0
352,192,29819,1,0
352,96,30540,1,0
128,96,31171,5,0
128,192,31891,1,0
416,192,32612,1,0
416,128,32882,1,0
256,96,33153,1,0
128,64,34864,5,0
128,160,35405,5,0
128,256,35945,1,0
224,288,36216,1,0
320,256,36576,1,0
384,224,36846,1,0
384,96,37207,1,0
320,64,37567,1,0
192,96,37927,1,0
192,96,38018,1,0
64,160,39729,6,0,C|256:32|256:96,2,280
32,128,42972,5,0
64,192,43243,1,0
64,192,43423,1,0
192,192,43783,1,0
192,192,43963,1,0
256,96,44594,5,0
256,96,44774,1,0
352,160,45315,1,0
352,160,45495,1,0
160,128,46036,5,0
160,192,46306,1,0
288,256,47027,1,0
416,160,47657,1,0
384,32,48378,1,0
192,64,48918,1,0
160,160,49189,1,0
192,256,49549,1,0
352,32,50720,5,0
416,192,51081,1,0
352,288,51441,1,0
160,64,52432,1,0
128,192,52702,1,0
192,256,53063,1,0
384,256,53783,1,0
416,96,54234,1,0
224,64,54774,1,0
128,128,55405,5,0
128,224,55765,1,0
224,256,56126,1,0
288,224,56396,1,0
352,96,57027,1,0
352,96,57117,1,0
192,64,57837,1,0
160,192,58558,1,0
224,288,59189,1,0
320,256,59639,1,0
320,256,59819,1,0
160,64,60540,5,0
160,192,60810,1,0
160,256,61171,1,0
256,288,61801,1,0
320,288,62342,1,0
352,128,63153,1,0
224,128,63693,1,0
128,128,64594,1,0
128,224,65225,1,0
288,256,65765,1,0
256,320,66216,1,0
192,288,66576,1,0
160,256,66756,1,0
256,192,67657,12,0,68648
32,192,69549,6,0,C|320:128|320:224,1,385
256,256,70630,2,0,C|-64:128|128:160,1,525
64,128,73333,1,0
64,128,73513,1,0
192,128,73783,1,0
256,96,74684,5,0
224,224,75135,1,0
256,288,75405,1,0
416,224,75675,1,0
384,96,76396,5,0
192,96,77027,1,0
192,256,77747,5,0
384,224,78378,1,0
384,128,78738,1,0
160,64,79369,5,0
160,192,79729,1,0
288,288,79999,1,0
416,96,80720,1,0
192,128,81261,1,0
160,256,81711,1,0
384,288,82432,5,0
416,128,82792,1,0
160,32,83513,1,0
160,224,84144,1,0
352,256,84594,1,0
416,96,84954,1,0
416,96,85135,1,0
192,96,85855,5,0
192,192,86126,1,0
320,288,86576,1,0
448,224,87117,1,0
416,128,87837,1,0
288,128,88108,1,0
192,128,88468,1,0
160,160,88828,1,0
160,256,89279,1,0
160,256,89369,1,0
320,96,89999,5,0
288,96,90270,1,0
224,96,90810,1,0
224,96,90990,1,0
224,160,91441,1,0
288,192,91801,1,0
128,96,92522,5,0
128,192,92882,1,0
192,256,93153,1,0
416,128,95225,5,0
384,64,97207,5,0
192,64,99189,5,0
160,192,99909,1,0
224,256,100270,1,0
352,288,100630,1,0
416,256,100900,1,0
416,128,101261,1,0
384,96,101621,1,0
320,96,101801,1,0
288,96,101981,1,0
160,96,103513,5,0
160,224,104594,1,0
320,320,105855,1,0
416,160,106396,1,0
256,96,106846,1,0
192,96,107207,1,0
160,224,107567,1,0
96,192,109729,6,0,C|160:192|256:96,3,175
64,224,112252,1,0
128,288,112522,1,0
224,288,112702,1,0
384,64,113423,1,0
128,128,114144,1,0
384,256,114774,5,0
160,288,115135,1,0
256,224,115495,1,0
192,192,115675,1,0
224,128,116036,1,0
288,96,116396,1,0
192,64,116756,1,0
224,192,117117,5,0
320,256,117657,1,0
128,288,118288,1,0
32,256,119459,2,0,C|256:128,1,245
352,256,120720,2,0,C|160:320,2,175
160,160,122162,2,0,C|384:64,1,210
96,160,124234,5,0
96,256,124594,1,0
192,288,124864,1,0
320,288,125225,1,0
320,64,125945,5,0
96,160,126576,1,0
160,256,126846,1,0
320,320,127297,1,0
352,96,127927,5,0
160,128,128378,1,0
128,160,128558,1,0
192,256,129279,5,0
320,288,129549,1,0
384,128,129909,1,0
160,96,130630,5,0
160,224,131081,1,0
384,256,131981,1,0
352,96,132522,5,0
128,96,133243,1,0
128,192,133603,1,0
160,288,133963,1,0
224,288,134144,1,0
256,192,134954,12,0,136306
96,160,137387,5,0
96,160,137567,1,0
128,256,137657,1,0
160,256,137837,1,0
224,96,138558,5,0
160,64,138648,1,0
160,160,139009,1,0
320,128,139729,5,0
224,256,140450,1,0
128,224,140630,1,0
128,96,140900,1,0
160,64,141081,1,0
320,160,141621,5,0
320,256,142072,1,0
256,288,142252,1,0
64,224,142612,1,0
128,96,142972,5,0
192,64,143153,1,0
320,160,143693,1,0
320,224,144054,1,0
192,256,144414,1,0
192,96,145045,5,0
192,256,145405,1,0
352,224,145765,1,0
352,96,146126,1,0
192,192,146486,1,0
160,224,146756,1,0
320,256,147207,1,0
320,256,147387,1,0
128,64,148108,5,0
160,224,148468,1,0
352,256,148738,1,0
352,32,149459,1,0
160,192,150180,1,0
352,256,150810,1,0
160,32,151531,1,0
128,224,152252,5,0
384,256,152882,1,0
352,32,153513,1,0
128,32,153873,1,0
128,160,154414,5,0
160,224,154774,1,0
224,224,154954,1,0
384,160,155405,1,0
352,96,155855,1,0
160,64,156846,5,0
160,128,157207,1,0
160,192,157567,1,0
224,224,157927,1,0
288,224,158108,1,0
320,128,158738,5,0
128,96,159099,1,0
64,96,159369,1,0
64,160,159549,1,0
64,160,159729,1,0
224,192,160090,1,0
320,160,160450,1,0
192,96,161261,5,0
128,192,161621,1,0
224,256,161981,1,0
64,288,162252,1,0
256,192,163693,12,0,165585
288,64,171081,5,0
128,96,172432,1,0
224,256,173153,1,0
320,96,173693,1,0
320,224,174054,1,0
160,320,174414,1,0
96,224,174684,1,0
128,96,175045,1,0
224,64,175405,1,0
288,96,175855,5,0
288,96,176036,1,0
288,96,176126,1,0
128,160,177027,5,0
128,160,177207,1,0
224,96,178468,1,0
160,96,178828,1,0
128,160,179189,1,0
160,224,179459,1,0
192,256,179819,1,0
288,256,180090,1,0
352,224,180450,1,0
352,96,180810,5,0
128,64,181531,1,0
128,224,182162,1,0
448,192,182882,1,0
288,128,183873,1,8
160,96,184504,1,8
128,256,185225,1,8
352,256,185945,1,8
160,96,186576,5,8
160,160,186936,1,8
160,224,187207,1,8
256,288,187927,1,8
384,288,188558,1,8
352,192,188918,1,8
320,128,189279,1,8
224,96,189549,1,8
160,96,189909,1,8
96,96,190360,1,8
96,96,190540,1,8
192,192,191261,5,8
160,224,191621,1,8
128,288,191981,1,8
288,288,192612,1,8
320,160,193063,1,8
128,96,194054,1,8
128,224,194414,1,8
224,128,195315,1,8
192,224,196036,1,8
288,288,196666,1,8
352,256,197027,1,8
352,160,197387,1,8
352,160,197477,1,8
256,192,198648,12,8,201441
64,160,202072,5,8
160,256,202432,1,8
416,224,203063,1,8
384,32,203783,1,8
192,128,204414,1,8
256,256,205135,1,8
384,224,205765,1,8
288,128,206216,1,8
288,128,206396,1,8
128,64,207387,5,8
128,192,207837,1,8
288,224,208378,1,8
320,256,208828,1,8
384,160,209369,1,8
288,96,209819,1,8
224,96,210180,1,8
128,160,210630,1,8
128,160,210810,1,8
160,96,211801,5,8
128,224,212522,1,8
320,192,213243,1,8
224,96,213873,1,8
128,160,214594,1,8
160,288,215225,1,8
320,288,215945,1,8
320,96,216576,1,8
192,96,217207,1,8
160,224,218198,1,8
288,288,218738,1,8
384,192,219279,1,8
288,96,219909,1,8
224,96,220360,1,8
192,96,220630,1,8
160,160,221531,5,8
288,192,222162,1,8
288,256,222432,1,8
192,288,222972,1,8
160,256,223153,1,8
128,160,223513,1,8
192,128,223873,1,8
192,96,225765,5,8
160,192,226306,1,8
256,288,226666,1,8
384,192,227387,1,8
352,64,228018,1,8
160,96,229009,1,8
160,256,229729,1,8
352,256,230180,1,8
352,128,230540,1,8
352,128,230720,1,8
128,96,231801,5,8
128,96,232072,1,8
192,160,233153,1,8
224,256,233783,1,8
128,288,234414,1,8
128,192,234954,1,8
128,192,235135,1,8
288,192,236756,5,8
256,288,237477,1,8
96,288,238108,1,8
224,96,238828,1,8
384,224,239549,1,8
256,320,240180,1,8
96,160,240810,1,8
352,96,241531,1,8
384,288,242522,1,8
160,288,242972,1,8
96,96,243513,1,8
32,192,244414,2,8,C|352:256,2,315
256,192,247477,12,8,249639
128,192,250630,5,8
288,224,250810,1,8
128,96,251801,5,8
160,224,252162,1,8
384,64,253063,1,8
320,192,253333,1,8
224,224,253513,1,8
128,96,254054,1,8
128,96,254144,1,8
352,160,254684,1,8
352,160,254864,1,8
320,256,255315,1,8
320,256,255495,1,8
192,96,255945,5,8
192,96,256126,1,8
224,256,256306,1,8
256,288,256486,1,8
320,256,256666,1,8
384,192,256846,1,8
352,160,257027,1,8
320,128,257207,1,8
256,192,258828,12,8,259189
