osu file format v6

[General]
AudioFilename: Bakugan Battle Brawlers - Puchigiri - Infinite Generation.mp3
AudioLeadIn: 0
PreviewTime: -1
Countdown: 1
SampleSet: None
StackLeniency: 0.7
Mode: 0
LetterboxInBreaks: 1

[Editor]
DistanceSpacing: 0.800000011920929
BeatDivisor: 4
GridSize: 32

[Metadata]
Title:Infinite Generation
Artist:???
Creator:VentusStorm
Version:Delta Dragonoid II {Intense
Source:
Tags:

[Difficulty]
HPDrainRate:8
CircleSize:7
OverallDifficulty:8
SliderMultiplier:1.4
SliderTickRate:1

[Events]
//Background and Video events
//Break Periods
//Storyboard Layer 0 (Background)
//Storyboard Layer 1 (Fail)
//Storyboard Layer 2 (Pass)
//Storyboard Layer 3 (Foreground)
//Storyboard Sound Samples
//Background Colour Transformations
3,100,255,0,0

[TimingPoints]
0,346.820809248555,4,0,0,100,1,0

[Colours]
Combo1 : 128,128,0
Combo2 : 243,21,21
Combo3 : 20,195,227
Combo4 : 32,234,17
Combo5 : 236,236,236

[HitObjects]
256,192,173,12,2,3034
32,160,3901,5,2
64,192,4161,1,2
64,224,4421,1,2
128,224,4768,1,2
256,224,5375,1,2
256,224,5635,1,2
256,224,5895,1,2
320,224,6763,1,2
320,224,7023,1,2
320,224,7196,1,2
320,128,7369,1,2
192,96,7890,5,2
192,96,8063,1,2
192,96,8236,1,2
192,96,8410,1,2
192,96,8583,1,2
128,128,9104,5,2
128,160,9277,1,2
128,192,9450,1,2
128,192,9624,1,2
192,224,9797,1,2
320,224,10317,5,2
352,224,10491,1,2
384,224,10664,1,2
384,160,10924,1,2
416,128,11098,1,2
224,96,11618,5,2
192,96,11791,1,2
192,128,11965,1,2
192,192,12225,1,2
320,256,12572,1,2
352,224,12745,5,2
384,96,13265,1,2
384,96,13439,1,2
288,96,13612,1,2
224,64,13786,1,2
224,96,13872,1,2
160,160,14566,5,2
160,160,14739,1,2
256,224,15000,1,2
288,256,15173,1,2
352,256,15346,1,2
384,224,15433,1,2
352,96,16040,5,2
320,96,16213,1,2
256,64,16387,1,2
128,64,16560,1,2
96,96,16734,1,2
128,192,17341,5,2
160,224,17514,1,2
256,256,17687,1,2
320,224,17861,1,2
384,192,18034,1,2
352,64,18728,5,2
320,64,18901,1,2
256,64,19075,1,2
224,96,19248,1,2
192,128,19421,1,2
192,128,19595,1,2
320,128,20115,5,2
352,160,20289,1,2
384,192,20462,1,2
416,224,20722,1,2
384,256,20895,1,2
288,256,21416,5,2
288,256,21589,1,2
256,256,21763,1,2
192,224,21936,1,2
192,192,22109,1,2
256,32,22716,5,2
320,96,23063,1,2
320,128,23323,1,2
288,160,23497,1,2
224,192,23670,1,2
192,192,24017,5,2
192,256,24364,1,2
256,256,24710,1,2
320,256,24971,1,2
352,256,25144,1,2
384,96,25751,5,2
256,96,26098,1,2
224,160,26271,1,2
192,224,26618,1,2
192,256,27138,5,2
192,288,27398,1,2
128,288,27658,1,2
128,256,27832,1,2
128,96,28439,5,2
192,64,28786,1,2
224,64,28959,1,2
320,128,29306,1,2
320,224,29653,1,2
256,256,30000,1,2
128,224,30346,1,2
128,192,30606,5,2
128,160,30780,1,2
224,160,31040,1,2
256,192,31213,1,2
256,224,31387,1,2
256,224,31560,1,2
224,256,31734,1,2
96,256,32080,1,2
256,192,33034,12,2,34248
64,160,35202,5,2
64,192,35375,1,2
96,224,35549,1,2
96,224,35722,1,2
224,192,36156,1,2
256,160,36502,1,2
256,160,36676,1,2
288,128,37109,5,2
288,160,37283,1,2
288,224,37456,1,2
256,256,37630,1,2
160,256,37890,1,2
160,224,38063,1,2
128,160,38410,1,2
192,96,38757,1,2
256,160,39277,5,2
256,192,39624,1,2
224,224,39884,1,2
96,192,40231,1,2
96,160,40578,1,2
96,160,40751,1,2
224,128,41184,5,2
224,128,41358,1,2
192,192,41791,1,2
192,192,41965,1,2
192,192,42138,1,2
128,128,42485,5,2
224,96,42745,1,2
256,96,43005,1,2
288,128,43265,1,2
288,128,43439,1,2
288,192,43699,1,2
256,192,43959,1,2
256,192,44046,1,2
160,192,44566,1,2
128,160,44826,1,2
192,96,45260,1,2
192,96,45433,1,2
320,128,45953,5,2
288,160,46127,1,2
288,192,46387,1,2
256,224,46560,1,2
160,192,46820,1,2
128,192,46994,1,2
160,160,47341,1,2
160,128,47514,1,2
224,128,47774,1,2
224,128,48034,1,2
256,128,48208,1,2
256,128,48381,1,2
352,128,48641,1,2
352,128,48901,1,2
352,128,49248,1,2
352,128,49595,5,2
320,128,50289,1,2
256,128,50462,1,2
224,128,50722,1,2
160,128,51069,1,2
128,128,51416,1,2
128,128,51589,1,2
128,160,52109,5,2
128,192,52716,1,2
128,192,52890,1,2
128,192,53150,1,2
128,192,53323,1,2
224,224,53583,1,2
256,224,53843,1,2
288,224,54017,1,2
352,192,54277,1,2
384,128,54537,1,2
320,64,54797,1,2
192,128,55404,5,2
192,192,55751,1,2
224,192,56098,1,2
64,224,56445,1,2
96,96,56965,1,2
96,96,57138,1,2
224,96,57745,5,2
256,128,58092,1,2
160,192,58439,1,2
288,256,58786,1,2
128,288,59132,1,2
192,160,59566,5,2
192,160,59739,1,2
384,96,60693,5,2
384,96,60867,1,2
384,96,61213,1,2
384,96,61560,1,2
224,96,61907,5,2
224,96,61994,1,2
224,96,62254,1,2
224,96,62427,1,2
160,128,62861,5,2
160,128,63034,1,2
160,128,63294,1,2
160,192,63468,1,2
224,192,63641,5,2
224,128,64421,1,2
224,128,64595,1,2
256,128,64768,1,2
288,128,64942,1,2
288,128,65115,1,2
320,128,65462,5,2
352,160,65809,5,2
352,192,66069,1,2
352,224,66242,1,2
320,256,66589,1,2
256,256,66763,1,2
224,256,67109,1,2
192,224,67283,1,2
160,192,67543,1,2
160,192,67716,1,2
160,192,67976,1,2
192,128,68323,5,2
256,96,68583,1,2
352,128,68757,1,2
352,160,68930,1,2
352,192,69104,1,2
320,224,69277,1,2
256,224,69884,5,2
256,224,69971,1,2
224,192,70317,1,2
192,128,70838,1,2
256,96,71271,1,2
288,96,71531,1,2
320,96,71878,1,2
352,128,72312,1,2
352,160,72398,1,2
320,192,72745,1,2
288,192,73005,1,2
256,192,73179,1,2
256,192,73352,1,2
224,160,73612,5,2
256,128,73786,1,2
352,64,74132,1,2
320,0,74739,1,2
256,96,75173,1,2
288,128,75346,1,2
480,128,76473,1,8
320,128,76647,1,8
224,128,76994,1,8
192,128,77341,1,8
96,128,77687,1,8
96,192,78034,1,8
192,224,78554,1,8
192,224,78728,1,8
160,160,79335,5,8
160,160,79508,1,8
160,160,79682,1,8
160,160,79855,1,8
224,128,80375,5,8
288,192,80722,1,8
224,256,81242,1,8
128,192,81763,1,8
128,192,81936,1,8
128,192,82109,1,8
128,192,82283,1,8
128,192,82456,1,8
128,192,82630,1,8
224,128,83410,5,8
320,128,83757,1,8
320,128,84104,1,8
320,128,84277,1,8
320,128,84537,1,8
320,128,84884,1,8
320,128,85057,1,8
128,96,85664,5,8
128,192,86098,1,8
320,192,86618,1,8
288,288,87138,1,8
128,224,87919,1,8
128,192,88265,1,8
128,160,88439,1,8
128,160,88699,1,8
160,128,88872,1,8
256,128,89132,1,8
256,128,89306,1,8
224,192,89913,5,8
192,256,90433,1,8
288,256,90780,1,8
288,256,90953,1,8
352,192,91300,1,8
352,128,91647,5,8
160,96,92167,1,8
160,96,92341,1,8
160,160,92687,1,8
224,192,93208,1,8
224,224,93468,1,8
192,224,93728,1,8
160,224,93901,1,8
128,128,94508,1,8
224,96,94768,1,8
224,96,94942,1,8
224,96,95115,1,8
256,160,95375,5,8
96,192,95895,1,8
160,256,96156,1,8
224,256,96329,1,8
256,256,96589,1,8
416,96,97196,5,8
384,224,97543,1,8
288,256,97803,1,8
128,256,98150,5,8
128,192,98410,1,8
160,128,98757,1,8
224,96,99104,1,8
288,128,99450,1,8
320,192,99710,1,8
320,192,99971,1,8
288,224,100144,1,8
288,224,100317,1,8
192,224,100838,5,8
160,160,101271,1,8
160,192,101618,1,8
96,224,101791,1,8
96,224,101965,1,8
160,256,102138,1,8
256,96,103005,5,8
256,96,103265,1,8
288,160,103439,1,8
288,224,103612,5,8
192,224,103959,1,8
128,192,104306,1,8
160,128,104913,1,8
160,128,105086,1,8
192,96,105346,1,8
192,96,105520,1,8
288,128,105867,5,8
320,128,106040,1,8
320,160,106300,1,8
320,160,106473,1,8
288,192,106734,1,8
288,224,106907,1,8
256,224,107254,1,8
160,224,107514,1,8
128,96,108294,5,8
128,128,108641,1,8
128,224,108988,1,8
224,256,109508,1,8
224,224,109682,1,8
256,96,110635,5,8
256,96,110809,1,8
160,96,111589,1,8
160,96,111763,1,8
64,96,112023,1,8
64,96,112283,1,8
96,192,112543,1,8
96,192,112716,1,8
96,192,112890,1,8
192,192,113323,1,8
192,192,113583,1,8
192,192,113757,1,8
288,160,114104,1,8
288,160,114277,1,8
288,160,114364,1,8
160,128,114884,5,8
128,128,115057,1,8
128,128,115231,1,8
96,128,115578,1,8
96,192,115924,1,8
192,224,116271,1,8
224,192,116531,1,8
256,192,116791,1,8
256,192,116965,1,8
256,192,117138,1,8
192,128,117572,5,8
192,128,117745,1,8
192,128,118005,1,8
96,128,118352,1,8
128,192,119393,5,8
352,160,119826,1,8
352,160,120173,1,8
352,160,120346,1,8
128,96,121560,5,8
128,96,121647,1,8
128,96,121820,1,8
128,96,121994,1,8
288,96,122514,1,8
288,96,122687,1,8
288,128,123121,1,8
288,192,123381,1,8
256,192,123554,1,8
96,96,124248,5,8
128,192,124595,1,8
160,256,124855,1,8
288,288,125202,1,8
416,96,125722,1,8
416,96,125895,1,8
192,128,126589,5,8
128,160,126936,1,8
128,256,127196,1,8
160,288,127543,1,8
288,288,127890,1,8
384,160,128583,1,8
160,128,129277,5,8
160,192,129624,1,8
160,256,129884,1,8
288,256,130404,5,8
288,256,130664,1,8
288,256,130838,1,8
288,256,131098,1,8
256,64,131965,5,8
256,64,132138,1,8
256,64,132485,1,8
128,96,133092,5,8
128,192,133352,1,8
128,192,133526,1,8
128,192,133699,1,8
256,192,134132,5,8
288,192,134479,1,8
352,192,134826,1,8
352,160,135000,1,8
384,96,135346,5,8
352,96,135520,1,8
256,64,135867,1,8
224,96,136127,1,8
192,96,136300,1,8
160,160,136734,1,8
160,192,136907,1,8
256,192,137341,5,8
288,192,137514,1,8
352,160,137687,1,8
384,128,137861,1,8
416,192,138121,1,8
416,256,138208,1,8
288,256,138554,1,8
288,256,138728,1,8
192,192,139075,5,8
192,64,139682,1,8
288,64,140028,1,8
320,128,140375,1,8
320,160,140549,1,8
224,224,141069,1,8
192,224,141242,1,8
160,128,141676,5,8
128,128,142023,1,8
96,160,142196,1,8
96,224,142456,1,8
128,256,142630,1,8
224,256,142890,1,8
192,96,143583,5,8
320,96,143930,1,8
352,160,144104,1,8
288,256,144450,1,8
160,128,145057,5,8
128,192,145404,1,8
128,256,145751,1,8
160,288,146011,1,8
256,288,146445,1,8
288,256,146705,1,8
320,128,147225,1,8
320,128,147398,1,8
160,128,148092,5,8
160,160,148265,1,8
160,160,148439,1,8
160,160,148612,1,8
256,192,149046,5,8
256,256,149479,1,8
128,256,149913,1,8
128,128,150520,1,8
128,128,150693,1,8
128,128,150867,1,8
128,128,151040,1,8
128,128,151213,1,8
128,128,151300,1,8
256,128,152167,5,8
288,192,152514,1,8
288,288,152687,1,8
224,288,153121,1,8
128,224,153381,1,8
128,160,153728,1,8
128,160,153901,1,8
256,64,154768,5,8
224,192,155289,1,8
96,192,155809,1,8
128,64,156763,5,8
224,64,157196,1,8
352,96,157630,1,8
352,96,157890,1,8
352,96,158063,1,8
128,96,158757,5,8
128,192,159190,1,8
288,192,159537,1,8
288,192,159710,1,8
288,128,160144,1,8
256,96,160404,1,8
128,96,160924,5,8
128,128,161184,1,8
160,192,161531,1,8
224,192,161791,1,8
288,192,161965,1,8
288,256,162225,1,8
256,256,162398,1,8
224,256,162572,1,8
160,256,162832,1,8
128,256,163005,1,8
128,192,163265,1,8
128,160,163439,1,8
160,160,163612,1,8
192,128,163959,1,8
224,128,164132,1,8
224,128,164306,5,8
256,160,164653,1,8
256,192,164826,1,8
224,224,165260,1,8
224,224,165433,1,8
128,160,165693,1,8
128,128,166040,1,8
96,192,166387,1,8
96,256,166734,1,8
192,224,166994,1,8
224,256,167427,1,8
256,192,167687,1,8
224,128,168034,1,8
128,128,168294,1,8
96,160,168641,5,8
96,192,168988,1,8
128,256,169335,1,8
192,256,169682,1,8
256,288,170028,1,8
224,320,170375,1,8
160,320,170722,1,8
96,288,170982,1,8
96,224,171329,1,8
96,192,171763,1,8
96,160,172023,1,8
96,128,172369,1,8
96,128,172716,1,8
160,64,173670,5,8
256,96,174190,1,8
256,160,174364,1,8
160,224,174710,1,8
128,288,175057,1,8
160,320,175404,1,8
256,320,175751,1,8
320,288,176098,1,8
320,192,176445,1,8
320,160,176705,1,8
256,128,177138,1,8
192,128,177485,5,8
128,128,177832,1,8
96,160,178179,1,8
96,192,178439,1,8
96,256,178786,1,8
128,288,179132,1,8
160,288,179479,1,8
192,288,179826,1,8
192,128,180520,5,8
192,128,180693,1,8
160,128,180867,1,8
160,128,180953,1,8
128,128,181213,1,8
224,192,181907,5,8
224,224,181994,1,8
128,256,182687,1,8
128,224,182861,1,8
128,192,183034,1,8
160,128,183294,1,8
192,96,183468,1,8
192,96,183641,1,8
224,96,183815,1,8
256,128,183988,1,8
288,160,184248,1,8
256,224,184595,5,8
224,224,184768,1,8
192,224,184942,1,8
128,192,185115,1,8
128,192,185375,1,8
128,160,185635,1,8
128,128,185809,1,8
128,128,185982,1,8
256,96,186242,5,8
288,128,186589,1,8
288,192,186936,1,8
224,224,187283,1,8
128,192,187716,1,8
128,192,187890,1,8
128,192,188063,5,8
160,96,188583,1,8
224,160,188930,1,8
128,224,189277,1,8
256,256,189624,1,8
128,288,189971,1,8
320,256,190404,1,8
320,256,190578,1,8
320,256,190751,1,8
160,96,191271,5,8
256,160,191618,1,8
128,256,191965,1,8
256,288,192312,5,8
256,288,192572,1,8
256,288,192745,1,8
256,288,192919,1,8
256,288,193179,1,8
160,256,193612,5,8
160,224,194046,1,8
160,192,194132,1,8
160,160,194306,1,8
256,160,194566,1,8
160,160,195173,5,8
128,224,195433,1,8
160,256,195606,1,8
224,256,195780,1,8
288,256,196127,1,8
320,160,196560,1,8
384,128,196820,1,8
416,192,196994,1,8
416,192,197254,1,8
416,256,197427,1,8
384,288,197601,1,8
256,288,198034,1,8
256,288,198208,1,8
224,288,198381,1,8
192,256,198554,1,8
192,256,198815,1,8
192,160,199335,5,8
224,160,199595,1,8
320,192,199768,1,8
352,224,199942,1,8
320,256,200115,1,8
288,288,200289,1,8
256,288,200462,1,8
192,256,200722,1,8
160,224,200895,1,8
160,192,201069,1,8
160,192,201242,1,8
192,160,201502,1,8
224,128,201849,5,8
256,128,202369,1,8
288,160,203063,1,8
256,224,203323,1,8
224,224,203583,1,8
192,224,203843,1,8
96,192,204017,1,8
128,128,204364,1,8
128,128,204537,1,8
224,96,204971,5,8
224,96,205144,1,8
288,128,205317,1,8
288,192,205578,1,8
288,224,205751,1,8
224,224,205924,1,8
160,224,206184,1,8
448,128,207398,5,2
384,128,207658,1,2
256,160,207919,1,2
128,160,208439,1,2
128,256,208786,5,2
224,256,209046,1,2
320,256,209393,1,2
384,256,209826,1,2
384,128,210173,1,2
288,128,210606,1,2
288,128,210780,1,2
192,160,211387,1,2
192,160,211560,1,2
192,192,211734,1,2
224,192,211994,1,2
288,224,212167,1,2
288,224,212427,1,2
192,256,212947,1,2
128,224,213381,1,2
128,192,213988,1,2
96,192,214248,1,2
96,160,214508,1,2
96,128,214682,1,2
160,128,215549,5,6
160,128,215809,1,6
160,128,216069,1,6
96,128,216242,1,6
96,128,216416,1,6
96,64,216676,1,6
160,64,217023,1,6
192,64,217196,1,6
480,96,218757,5,4
256,96,219190,1,4
96,96,220144,1,4
96,160,220404,1,4
96,160,220578,1,4
96,192,220751,1,4
192,192,220924,5,4
320,160,221184,1,4
352,160,221445,1,4
320,256,222138,5,4
160,256,222572,1,4
128,192,222832,1,4
128,192,223092,1,4
128,192,223265,1,4
192,96,223526,1,4
288,96,223786,5,4
352,160,224219,1,4
352,192,224393,1,4
288,224,224566,1,4
256,256,224739,1,4
160,224,224913,1,4
160,224,225173,1,4
160,96,225867,5,4
160,192,226127,1,4
160,192,226300,1,4
160,192,226473,1,4
256,192,226734,1,4
320,96,227341,5,4
192,96,227687,1,4
128,96,228034,1,4
128,96,228121,1,4
128,192,228641,5,4
128,192,228815,1,4
288,192,229335,1,4
288,192,229508,1,4
288,192,229595,1,4
288,192,229768,1,4
288,192,230028,1,4
192,128,230202,5,4
96,160,230462,1,4
160,224,231242,1,4
224,192,231589,1,4
320,192,231763,1,4
320,160,231936,1,4
160,96,232630,5,4
128,128,233063,1,4
160,192,233410,1,4
256,224,233757,1,4
288,224,234017,1,4
416,96,234364,1,4
224,64,234884,5,4
192,64,235057,1,4
192,64,235231,1,4
160,128,235664,1,4
160,160,235838,1,4
160,160,236011,1,4
192,160,236271,1,4
256,160,236531,5,4
288,160,236705,1,4
288,160,236878,1,4
256,224,237052,1,4
192,224,237398,1,4
192,224,237658,1,4
160,128,238265,5,4
160,128,238439,1,4
224,128,238612,1,4
256,128,238786,1,4
256,128,239046,1,4
288,192,239739,5,4
224,224,240086,1,4
160,224,240346,1,4
160,256,240520,1,4
128,288,240693,1,4
256,288,241040,1,4
352,288,241300,1,4
352,256,241473,1,4
224,32,242080,5,4
224,64,242254,1,4
224,64,242427,1,4
224,64,242601,1,4
128,96,242947,1,4
160,192,243468,1,4
320,160,244335,5,4
320,192,244682,1,4
256,288,245549,1,4
224,288,245722,1,4
256,192,246849,12,4,248236
32,160,249017,5,4
64,192,249277,1,4
128,256,249537,1,4
192,256,249971,1,4
288,224,250231,1,4
352,160,250491,1,4
384,96,250664,1,4
416,96,250838,1,4
448,128,251011,1,4
448,192,251271,1,4
384,288,251705,5,4
320,320,251878,1,4
224,288,252052,1,4
160,224,252312,1,4
128,160,252485,1,4
128,128,252745,1,4
160,32,253265,1,4
160,32,253439,1,4
192,32,253612,1,4
320,32,253959,1,4
352,32,254132,1,4
352,32,254306,1,4
352,96,254653,5,4
320,128,254826,1,4
224,192,255346,1,4
192,192,255520,1,4
224,256,255693,1,4
288,288,255867,1,4
352,288,256040,1,4
384,224,256647,1,4
320,192,256820,1,4
256,192,256994,1,4
288,160,257167,1,4
256,160,257427,1,4
224,128,257601,1,4
256,128,257774,1,4
0,128,258034,5,4
160,96,258208,1,4
128,96,258381,1,4
