osu file format v9

[General]
AudioFilename: TranceDam Dadi Do.mp3
AudioLeadIn: 0
PreviewTime: -1
Countdown: 1
SampleSet: Normal
StackLeniency: 0.7
Mode: 0
LetterboxInBreaks: 1

[Editor]
DistanceSpacing: 0.8
BeatDivisor: 1
GridSize: 32

[Metadata]
Title:Dam Dadi Do
Artist:?
Creator:CARNAXHACKER789
Version:Easy
Source:
Tags:

[Difficulty]
HPDrainRate:5
CircleSize:5
OverallDifficulty:5
ApproachRate:5
SliderMultiplier:1.4
SliderTickRate:1

[Events]
//Background and Video events
0,0,"Nitro+.jpg"
//Break Periods
2,57005,67535
2,113497,123325
//Storyboard Layer 0 (Background)
//Storyboard Layer 1 (Fail)
//Storyboard Layer 2 (Pass)
//Storyboard Layer 3 (Foreground)
//Storyboard Sound Samples
//Background Colour Transformations
3,100,163,162,255

[TimingPoints]
9788.4298245614,350.877192982456,4,1,0,100,1,0

[HitObjects]
113,106,23472,1,0
274,147,24876,1,0
250,108,25577,1,0
368,103,25928,1,0
269,190,26279,1,0
372,207,26630,1,0
121,229,27683,1,0
248,88,28384,1,0
359,162,29086,1,0
231,234,29788,1,0
117,152,30490,1,0
401,165,31542,1,0
282,50,31893,1,0
264,184,32595,1,0
131,171,33297,1,0
376,175,33998,1,0
269,47,34700,1,0
258,180,35402,1,0
249,236,36104,1,0
122,197,36805,1,0
349,177,37507,1,0
317,262,38209,1,0
195,219,38911,1,0
304,157,39612,1,0
388,152,40314,1,0
231,209,41016,5,0
324,229,41718,1,0
339,138,42420,1,0
215,196,43121,1,0
367,231,43823,1,0
263,184,44876,1,0
263,184,45227,1,0
263,184,45928,1,0
343,259,46630,1,0
234,279,47332,1,0
137,152,48034,1,0
341,141,48735,1,0
289,246,49437,1,0
135,217,50139,1,0
275,157,50841,1,0
399,226,51191,1,0
208,252,52244,1,0
286,158,52946,1,0
401,169,53648,1,0
281,245,53998,1,0
354,191,55051,1,0
204,146,55402,1,0
266,182,56805,1,8
32,177,68735,6,12,B|501:174|319:176,10,280
168,144,79963,2,12,B|433:148,8,140
193,179,85928,1,12
313,186,86981,1,12
257,224,87683,1,12
269,126,88384,1,12
398,137,88735,1,12
360,219,89086,1,12
263,166,89788,1,12
344,129,90139,1,12
286,231,91191,1,12
216,250,91542,1,12
138,178,91893,1,12
282,166,92595,1,12
244,217,92946,1,12
388,125,93297,1,12
184,194,93998,1,12
276,215,94700,1,12
216,206,96805,5,12
260,193,99612,1,12
260,193,101016,1,12
163,180,102770,1,12
313,207,103823,1,12
318,155,104174,1,12
236,236,104525,1,12
236,236,105227,1,12
146,220,105577,1,12
230,164,105928,1,12
336,174,106630,1,12
336,174,106981,1,12
336,174,107332,1,12
336,174,107683,1,12
285,190,108034,1,12
229,208,108735,1,12
366,258,109437,1,12
383,151,109788,1,12
215,240,110841,1,12
339,241,111191,1,12
364,149,111893,1,12
317,104,112244,1,12
167,116,112595,1,12
196,222,113297,1,12
254,194,124525,5,4
325,242,127332,1,4
212,258,128034,1,4
250,194,128735,1,4
256,192,131191,12,4,146630
